tja
This commit is contained in:
448
tja/604.tja
Normal file
448
tja/604.tja
Normal file
@@ -0,0 +1,448 @@
|
||||
//TJADB Project
|
||||
TITLE:Itsumo Nando Demo
|
||||
TITLEJA:いつも何度でも
|
||||
SUBTITLE:--Youmi Kimura/Spirited Away
|
||||
SUBTITLEJA:「千と千尋の神隠し」より
|
||||
BPM:134
|
||||
WAVE:Itsumo Nando Demo.ogg
|
||||
OFFSET:-2.824
|
||||
DEMOSTART:4.953
|
||||
|
||||
//Shinuchi: 11890/10150/4800/4220
|
||||
|
||||
COURSE:Oni
|
||||
LEVEL:1
|
||||
BALLOON:8,8,8,17
|
||||
SCOREINIT:970,4340
|
||||
SCOREDIFF:295
|
||||
|
||||
#START
|
||||
#BARLINEOFF
|
||||
#MEASURE 3/4
|
||||
0,
|
||||
#BARLINEON
|
||||
002,
|
||||
|
||||
120,
|
||||
122,
|
||||
112000,
|
||||
102,
|
||||
|
||||
122,
|
||||
102022,
|
||||
102022,
|
||||
102, //10
|
||||
|
||||
120,
|
||||
122,
|
||||
112022,
|
||||
100002,
|
||||
|
||||
122,
|
||||
102022,
|
||||
102022,
|
||||
7,
|
||||
800022, //19
|
||||
|
||||
122,
|
||||
102222,
|
||||
122,
|
||||
102222,
|
||||
|
||||
102022,
|
||||
102022,
|
||||
102212,
|
||||
100022, //27
|
||||
|
||||
122,
|
||||
102222,
|
||||
122,
|
||||
102212,
|
||||
|
||||
102222,
|
||||
102022,
|
||||
500000000000000008000000200000200000,
|
||||
7,
|
||||
8,
|
||||
000022, //37
|
||||
|
||||
121022,
|
||||
102022,
|
||||
121002,
|
||||
102022,
|
||||
|
||||
102022,
|
||||
102022,
|
||||
102212,
|
||||
102022, //45
|
||||
|
||||
121002,
|
||||
102022,
|
||||
121012,
|
||||
122,
|
||||
|
||||
102012,
|
||||
102022,
|
||||
500000000000000008000000100000200000,
|
||||
7,
|
||||
8,
|
||||
000022, //55
|
||||
|
||||
#GOGOSTART
|
||||
222,
|
||||
202222,
|
||||
222,
|
||||
202222,
|
||||
|
||||
202022,
|
||||
202022,
|
||||
202222,
|
||||
200011, //63
|
||||
|
||||
100000000000100000000000500008000000,
|
||||
101111,
|
||||
122,
|
||||
122222,
|
||||
|
||||
001112,
|
||||
100000000000500008000000100000200000,
|
||||
500000000000000008000000100000200000,
|
||||
7,
|
||||
0,
|
||||
#GOGOEND
|
||||
8, //73
|
||||
|
||||
#BARLINEOFF
|
||||
0,
|
||||
0,
|
||||
0, //76
|
||||
#END
|
||||
|
||||
|
||||
COURSE:Hard
|
||||
LEVEL:2
|
||||
BALLOON:7,7,7,15
|
||||
SCOREINIT:940,4930
|
||||
SCOREDIFF:295
|
||||
|
||||
#START
|
||||
#BARLINEOFF
|
||||
#MEASURE 3/4
|
||||
0,
|
||||
#BARLINEON
|
||||
002,
|
||||
|
||||
120,
|
||||
122,
|
||||
120,
|
||||
102,
|
||||
|
||||
122,
|
||||
122,
|
||||
102022,
|
||||
102, //10
|
||||
|
||||
120,
|
||||
122,
|
||||
102022,
|
||||
1,
|
||||
|
||||
122,
|
||||
102022,
|
||||
102022,
|
||||
7,
|
||||
802, //19
|
||||
|
||||
122,
|
||||
102220,
|
||||
122,
|
||||
102220,
|
||||
|
||||
102022,
|
||||
102022,
|
||||
102222,
|
||||
102, //27
|
||||
|
||||
122,
|
||||
102220,
|
||||
122,
|
||||
102220,
|
||||
|
||||
102022,
|
||||
102022,
|
||||
500000000000000008000000200000200000,
|
||||
7,
|
||||
8,
|
||||
002, //37
|
||||
|
||||
120,
|
||||
122,
|
||||
112000,
|
||||
102,
|
||||
|
||||
102022,
|
||||
102022,
|
||||
102222,
|
||||
102, //45
|
||||
|
||||
112000,
|
||||
122,
|
||||
112022,
|
||||
102,
|
||||
|
||||
102022,
|
||||
102022,
|
||||
500000000000000008000000200000200000,
|
||||
7,
|
||||
8,
|
||||
0, //55
|
||||
|
||||
#GOGOSTART
|
||||
222,
|
||||
202222,
|
||||
222,
|
||||
202222,
|
||||
|
||||
202022,
|
||||
202022,
|
||||
202222,
|
||||
2, //63
|
||||
|
||||
111,
|
||||
101111,
|
||||
111,
|
||||
111111,
|
||||
|
||||
001110,
|
||||
102022,
|
||||
500000000000000008000000200000200000,
|
||||
7,
|
||||
0,
|
||||
#GOGOEND
|
||||
8, //73
|
||||
|
||||
#BARLINEOFF
|
||||
0,
|
||||
0,
|
||||
0, //76
|
||||
#END
|
||||
|
||||
|
||||
COURSE:Normal
|
||||
LEVEL:1
|
||||
BALLOON:6,6,6,13
|
||||
SCOREINIT:1330,10780
|
||||
SCOREDIFF:875
|
||||
|
||||
#START
|
||||
#BARLINEOFF
|
||||
#MEASURE 3/4
|
||||
0,
|
||||
#BARLINEON
|
||||
0,
|
||||
|
||||
1,
|
||||
101,
|
||||
1,
|
||||
1,
|
||||
|
||||
101,
|
||||
101,
|
||||
500000000000000000000008000000000000,
|
||||
3, //10
|
||||
|
||||
1,
|
||||
101,
|
||||
101,
|
||||
1,
|
||||
|
||||
101,
|
||||
101,
|
||||
500000000000000000000008000000000000,
|
||||
7,
|
||||
8, //19
|
||||
|
||||
1,
|
||||
111,
|
||||
1,
|
||||
111,
|
||||
|
||||
101,
|
||||
101,
|
||||
500000000000000000000008000000000000,
|
||||
3, //27
|
||||
|
||||
1,
|
||||
111,
|
||||
1,
|
||||
111,
|
||||
|
||||
101,
|
||||
101,
|
||||
500000000000000000000008000000000000,
|
||||
7,
|
||||
8,
|
||||
0, //37
|
||||
|
||||
1,
|
||||
101,
|
||||
1,
|
||||
2,
|
||||
|
||||
102,
|
||||
201,
|
||||
500000000000000000000008000000000000,
|
||||
3, //45
|
||||
|
||||
1,
|
||||
101,
|
||||
102,
|
||||
2,
|
||||
|
||||
102,
|
||||
201,
|
||||
500000000000000000000008000000000000,
|
||||
7,
|
||||
8,
|
||||
0, //55
|
||||
|
||||
#GOGOSTART
|
||||
2,
|
||||
222,
|
||||
2,
|
||||
222,
|
||||
|
||||
202,
|
||||
202,
|
||||
202,
|
||||
2, //63
|
||||
|
||||
1,
|
||||
111,
|
||||
1,
|
||||
111,
|
||||
|
||||
102,
|
||||
201,
|
||||
500000000000000000000008000000000000,
|
||||
9,
|
||||
09,
|
||||
#GOGOEND
|
||||
8, //73
|
||||
|
||||
#BARLINEOFF
|
||||
0,
|
||||
0,
|
||||
0, //76
|
||||
#END
|
||||
|
||||
|
||||
COURSE:Easy
|
||||
LEVEL:2
|
||||
BALLOON:7,10,10,10
|
||||
SCOREINIT:1240,13060
|
||||
SCOREDIFF:883
|
||||
|
||||
//RC scorediff: 868
|
||||
|
||||
#START
|
||||
#BARLINEOFF
|
||||
#MEASURE 3/4
|
||||
0,
|
||||
#BARLINEON
|
||||
0,
|
||||
|
||||
1,
|
||||
1,
|
||||
150,
|
||||
000000000008000000000000000000000000,
|
||||
|
||||
1,
|
||||
1,
|
||||
101,
|
||||
3, //10
|
||||
|
||||
1,
|
||||
1,
|
||||
150,
|
||||
000000000008000000000000000000000000,
|
||||
|
||||
1,
|
||||
1,
|
||||
170,
|
||||
008,
|
||||
0, //19
|
||||
|
||||
1,
|
||||
101,
|
||||
1,
|
||||
101,
|
||||
|
||||
101,
|
||||
150,
|
||||
000000000000000008000000000000000000,
|
||||
3, //27
|
||||
|
||||
1,
|
||||
101,
|
||||
1,
|
||||
101,
|
||||
|
||||
1,
|
||||
101,
|
||||
7,
|
||||
0,
|
||||
8,
|
||||
0, //37
|
||||
|
||||
1,
|
||||
101,
|
||||
1,
|
||||
3,
|
||||
|
||||
101,
|
||||
150,
|
||||
000000000000000008000000000000000000,
|
||||
3, //45
|
||||
|
||||
1,
|
||||
101,
|
||||
101,
|
||||
1,
|
||||
|
||||
101,
|
||||
101,
|
||||
7,
|
||||
0,
|
||||
8,
|
||||
0, //55
|
||||
|
||||
#GOGOSTART
|
||||
1,
|
||||
110,
|
||||
1,
|
||||
110,
|
||||
|
||||
101,
|
||||
101,
|
||||
1,
|
||||
3, //63
|
||||
|
||||
1,
|
||||
110,
|
||||
1,
|
||||
110,
|
||||
|
||||
101,
|
||||
101,
|
||||
101,
|
||||
9,
|
||||
09,
|
||||
#GOGOEND
|
||||
8, //73
|
||||
|
||||
#BARLINEOFF
|
||||
0,
|
||||
0,
|
||||
0, //76
|
||||
#END
|
||||
Reference in New Issue
Block a user