This commit is contained in:
2026-03-04 23:59:27 +09:00
parent 6e0312f5b4
commit 4b4e2b8c98
1128 changed files with 668765 additions and 0 deletions

744
tja/605.tja Normal file
View File

@@ -0,0 +1,744 @@
//TJADB Project
TITLE:Tokyo Teddy Bear
TITLEJA:東京テディベア
SUBTITLE:--Neru feat. Kagamine Rin
SUBTITLEJA:Neru feat.鏡音リン
BPM:204
WAVE:Tokyo Teddy Bear.ogg
OFFSET:-1.403
DEMOSTART:47.573
//Shinuchi: 3840/2690/1850/1220
COURSE:Oni
LEVEL:8
BALLOON:
SCOREINIT:380,1260
SCOREDIFF:95
#START
10
#LYRIC Tousan kaasan ima made gomen
222211,
02221210,
20222122,
02222120,
10
#LYRIC Hiza o furuwase oyayubi shaburu
222121,
01111120,
20221212,
02112210,
10
#LYRIC Niisan neesan sore jaa mata ne
222211,
02221210,
20222122,
02222120,
10
#LYRIC Saenai kutsu no kakato tsubushita
222121,
#BPMCHANGE 205.48
011100
#SCROLL 1.25
30,
#BPMCHANGE 204
30230323,
001020222010
#LYRIC YAY
0000,//16
#GOGOSTART
#LYRIC
3000200011102010,
0010200011102000,
1000200011102010,
0010201000112020,
1000200011102010,
0011201011102000,
1000200011102010,
0010202220202020,//24
#GOGOEND
1010
#LYRIC Mie hatta size de katagami o toru
202210102022,
1010202210201220,
1010202210102022,
1020102210201222,
1010
#LYRIC Nandatte ii no sa kawari ni nareba
202210102022,
1010202210221020,
1011201000102010,
0010202220
#LYRIC Aisaretai to kuchi o koboshita
100030,
00304033,
00304033,
00304033,
00001022
#LYRIC Motta joubuna hasami de kao o kiritoru no sa
20202010,
0010200011102010,
0010200011102010,
0010202110102010,
0011
#LYRIC Zenchi zennou no kotoba o hora kikasete yo
2022202220
#GOGOSTART
30,//40
0010200011102010,
0010200011102010,
0010200011102010,
0010
#LYRIC Noumiso igai mou irenai to why not? I dont know
202210202010,
0010200011102010,
0010200011102010,
0010202110100010,
0010
#LYRIC Kinmirai souzou asu no shousou tada yurashite yo
202220222010,
0010202211102010,
0010202211102010,
0010202211102010,
0011
#LYRIC Nuime no sukima o umete okure
202210202010,
0010202210222010,
0010202211102010,
02212212,
00102021101120
#GOGOEND
#SCROLL 0.75
#LYRIC
30,//56
00102011,
00102011,
00102022,
00201022202020
#SCROLL 1.25
10,
0020102020102210,
2210221022101020,
0010202011200050,
#BPMCHANGE 203
0000000000
#LYRIC Mou nanimo nai yo nanimo nai yo hikihagasarete
00000000000008000000000000000000
#SCROLL 0.5
200000,
#BPMCHANGE 204
02202002,
02202002,
02202202,
00
#LYRIC Itokuzu no umi e to kono saibou mo
202201,
02202201,
02202201,
00202021,
00
#LYRIC Sou boku inai yo boku inai yo nagesuterarete
20120
#SCROLL 0.75
2,
02202102,
02202102,
02202101,
00
#LYRIC Kaeru basho sura doko ni mo nain da yo
202201,
00102201,
#BPMCHANGE 205
0010220
#SCROLL 1.25
3,
#BPMCHANGE 204
0030401010222010,
000000100000
#LYRIC Sonzai shoumei
200000100000102000000102000000102000,
#LYRIC
0000
#GOGOSTART
#LYRIC Aa, shut up usodarake no karada
200020222010,
0011202211102010,
0010201011102010,
0011
#LYRIC Kansei shitai yo kuru shitai yo ima kaitou o
202210202210,
0010201011102010,
0010201011102010,
0011202110100010,
0010
#LYRIC Kawarenai no? Kawaretai no?
202220222010,
0010201020102011,
2010
#LYRIC Nanimo nai? Konna no boku janai!
201120102011,
2010201122112010,
0011
#LYRIC Nuime wa hodokete hikichigireta
202110111110,
0011201011102010,
0011201011102010,
02212212,
0010202210102010,
#LYRIC
3000200011102010,
0010201011102000,
1000200011102010,
0010201000112020,
1000200011102010,
0010201011102000,
1000200011102010,
0010202220202020,
3000
#LYRIC Nietatta days de inochi bi o tatsu
202211102010,
0011201011102000,
1000201000112010,
0011201011102000,
1000
#LYRIC Dare datta ii no sa kawari ni nareba
200011102010,
0011201000112022,
1000201000112010,
0010202220
#LYRIC
100000,//112
#GOGOEND
#BARLINEOFF
0,
#END
COURSE:Hard
LEVEL:6
BALLOON:
SCOREINIT:450,1960
SCOREDIFF:113
#START
00102022,
02200010,
20220121,
0,
00112021,
01200010,
10220121,
0,
00102022,
02200010,
20220121,
0,
00102021,
#BPMCHANGE 205.48
01200030,
#BPMCHANGE 204
30430346,
000000000000000000000000000008000000200000000000,//16
#GOGOSTART
10201121,
01201020,
10201121,
01210120,
10201121,
01201020,
10201121,
01221220,//24
#GOGOEND
10212021,
01201120,
10210121,
01201120,
10201121,
01201222,
30430346,
000000000000000000000000000008000000000000100000,
00102011,
00102011,
00102011,
0010000020020010,
01201121,
01201121,
01221021,
0030440
#GOGOSTART
3,//40
01201121,
01201121,
01202101,
01202201,
01201121,
01201121,
01201125,
000008000000300000000000400000400000000000300000,
01201121,
01201121,
01202101,
01202201,
01201101,
01201101,
01500000,
000000000000000000000000000000000008000000
#GOGOEND
300000,//56
00102011,
00102011,
00102011,
0000101110101010,
01201121,
01201121,
01221105,
#BPMCHANGE 203
000000000000000000000000000000000008000000000000,
#BPMCHANGE 204
00202002,
00202002,
00202002,
00202202,
00202202,
00202202,
00002002,
00202201,
00202201,
00202201,
00201101,
00202201,
00102201,
#BPMCHANGE 205
00102203,
#BPMCHANGE 204
000000300000600000000000000000000000000000000008,
0000300030030030,
00
#GOGOSTART
201121,
01201121,
01202101,
01202201,
01201121,
01201121,
01201125,
000008000000300000000000400000400000000000300000,
01202120,
20212120,
20212121,
01202201,
01201121,
01201121,
01500000,
000000000000000000000000000000000008000000000000,
10201121,
01201020,
10201121,
01210120,
10201121,
01201020,
10201121,
01221220,
10201121,
01201020,
10210121,
01210120,
10201121,
01201020,
10210121,
01222100,//112
#GOGOEND
#BARLINEOFF
0,
#END
COURSE:Normal
LEVEL:6
BALLOON:4
SCOREINIT:530,2930
SCOREDIFF:145
#START
#SCROLL 0.9
00101022,
02200010,
10220222,
0,
00101022,
02200010,
10220222,
0,
00101022,
02200010,
10220222,
0,
00101022,
#BPMCHANGE 205.48
02200030,
#BPMCHANGE 204
30030306,
000000000000000000000000000000000008000000000000,//16
#GOGOSTART
10102001,
01102020,
10102201,
0022,
10102001,
01102020,
10102201,
01102220,//24
#GOGOEND
1202,
1122,
1202,
1122,
1202,
1122,
30030307,
00000805,
000000000000000000000008000000000000000000100000,
00101011,
00000022,
02001002,
01101002,
01101002,
01101011,
0030300
#GOGOSTART
3,//40
00201001,
00201001,
00202201,
00102001,
00201001,
00201005,
000000000008000000000000500000000008000000500000,
000008000000300000000000300000000000000000300000,
00201001,
00201001,
00202201,
00102001,
00102201,
00102201,
01500000,
000000000000000000000000000000000008000000
#GOGOEND
300000,//56
00102001,
00102001,
00102011,
00102201,
00201001,
01201001,
01201105,
#BPMCHANGE 203
000000000000000000000000000000000008000000000000,
#BPMCHANGE 204
0,
0,
0,
0,
0,
0,
0,
00202201,
00202201,
00202201,
00202201,
00202201,
00202201,
#BPMCHANGE 205
00000003,
#BPMCHANGE 204
000000300000600000000000000000000000000000000008,
0000000030030030,
00
#GOGOSTART
201001,
00201001,
00202201,
00102001,
00201001,
00201005,
000000000008000000000000500000000008000000500000,
000008000000300000000000300000000000000000300000,
00202120,
10202120,
10202121,
00102001,
00102201,
00102201,
01500000,
000000000000000000000000000000000008000000000000,
10102001,
01102020,
10102201,
0022,
10102001,
01102020,
10102201,
00002220,
10102001,
01102020,
10102201,
0022,
10102001,
01102020,
10010001,
03303300,//112
#GOGOEND
#BARLINEOFF
0,
#END
COURSE:Easy
LEVEL:4
BALLOON:8,8,6
SCOREINIT:430,4400
SCOREDIFF:113
#START
#SCROLL 0.8
0200,
0220,
0200,
0222,
0200,
0220,
0200,
0222,
0200,
0220,
0200,
0222,
0202,
#BPMCHANGE 205.48
0200,
#BPMCHANGE 204
30030006,
000000000000000000000000000008000000000000000000,//16
#GOGOSTART
11,
1110,
22,
2220,
11,
1110,
20002005,
000000000000000000000000000008000000000000000000,//24
#GOGOEND
1002,
0222,
1002,
0222,
1002,
0222,
30030006,
000000000000000000000008000000000000000000300000,
00202003,
00202003,
00202003,
00202003,
0202,
0202,
00101001,
0030300
#GOGOSTART
3,//40
00201001,
00201001,
00201001,
00202001,
00201001,
00201003,
00003003,
00000003,
00201001,
00201001,
00201001,
00202001,
00201001,
00201006,
0,
000000000000000000000008000000000000000000
#GOGOEND
300000,//56
00000003,
00000003,
00000003,
00202001,
0202,
0202,
00101005,
#BPMCHANGE 203
000000000000000000000000000000000008000000000000,
#BPMCHANGE 204
0,
0,
0,
0,
0,
0,
0,
00202001,
00202001,
00202001,
00202001,
00202001,
00202001,
00000009,
0009,
8,
00
#GOGOSTART
201001,
00201001,
00201001,
00202001,
00201001,
00201003,
00003003,
00000003,
0111,
2111,
00101011,
00202001,
00201001,
00201009,
0009,
8,
11,
1110,
22,
2220,
11,
1110,
20002005,
000000000000000000000000000008000000000000000000,
11,
1110,
22,
2220,
11,
1110,
30030007,
00000800,//112
#GOGOEND
#BARLINEOFF
0,
#END