tja
This commit is contained in:
801
tja/61.tja
Normal file
801
tja/61.tja
Normal file
@@ -0,0 +1,801 @@
|
||||
//TJADB Project
|
||||
TITLE:Off♨Rock
|
||||
TITLEJA:オフ♨ロック
|
||||
SUBTITLE:--Yuri Misumi feat. Yukiko Watanabe
|
||||
BPM:200
|
||||
WAVE:Off Rock.ogg
|
||||
OFFSET:-1.546
|
||||
DEMOSTART:52.834
|
||||
|
||||
COURSE:Oni
|
||||
LEVEL:7
|
||||
SCOREINIT:510
|
||||
SCOREDIFF:133
|
||||
|
||||
|
||||
#START
|
||||
|
||||
|
||||
,
|
||||
11,
|
||||
100100111111,//3
|
||||
|
||||
#GOGOSTART
|
||||
101202100200,
|
||||
101202101101,
|
||||
101202100200,
|
||||
102201000100,
|
||||
101202100200,
|
||||
101202101101,
|
||||
100202202200,
|
||||
102202111111,//11
|
||||
|
||||
#GOGOEND
|
||||
100100102200,
|
||||
100100102200,
|
||||
100100102201,
|
||||
001202101200,
|
||||
100100102200,
|
||||
100100102200,
|
||||
100100102201,
|
||||
001202101200,
|
||||
100100102200,
|
||||
100100100030,
|
||||
002100100200,
|
||||
100201001200,
|
||||
100100101200,
|
||||
100100101200,
|
||||
100100101201,
|
||||
002201202100,
|
||||
100100101200,
|
||||
100100101200,
|
||||
100100101201,
|
||||
002201202100,
|
||||
100100101200,
|
||||
100100100030,
|
||||
002100100200,
|
||||
100201001200,
|
||||
101201101201,
|
||||
001201102200,
|
||||
102200102201,
|
||||
001201102200,
|
||||
101201101201,
|
||||
001201102200,
|
||||
102200102201,
|
||||
002202111111,//43
|
||||
|
||||
#GOGOSTART
|
||||
101202100200,
|
||||
101202101101,
|
||||
101202100200,
|
||||
102201000100,
|
||||
101202100200,
|
||||
101202101101,
|
||||
101202100200,
|
||||
102201000100,
|
||||
101202100200,
|
||||
101202101101,
|
||||
100202202200,
|
||||
102202111111,
|
||||
100100102200,
|
||||
101101100200,
|
||||
100100102200,
|
||||
101101100200,
|
||||
100100201102,
|
||||
100100201102,//61
|
||||
|
||||
#GOGOEND
|
||||
100100201102,
|
||||
100101201200,
|
||||
100102102111,
|
||||
102102102111,
|
||||
100100102100,
|
||||
111222111222,
|
||||
#BPMCHANGE 197.6
|
||||
#SCROLL 1.01
|
||||
100202100202,
|
||||
#BPMCHANGE 202.72
|
||||
#SCROLL 0.98
|
||||
100201001202,
|
||||
#BPMCHANGE 199.62
|
||||
#SCROLL 1
|
||||
100202100202,
|
||||
#BPMCHANGE 200
|
||||
100201001202,
|
||||
101200101201,
|
||||
101201001202,
|
||||
101200101201,
|
||||
101201001202,
|
||||
101202101202,
|
||||
101202101202,
|
||||
101202100202,
|
||||
#BPMCHANGE 200.14
|
||||
#SCROLL 0.99
|
||||
101202111111,//79
|
||||
|
||||
#BPMCHANGE 199.88
|
||||
#SCROLL 1
|
||||
#GOGOSTART
|
||||
101202100202,
|
||||
101202101101,
|
||||
101202100202,
|
||||
102201000100,
|
||||
101202100202,
|
||||
101202101101,
|
||||
101202100202,
|
||||
102201000100,
|
||||
101202100202,
|
||||
101202101101,
|
||||
100202202200,
|
||||
102202111111,
|
||||
#MEASURE 3/4
|
||||
300222200,
|
||||
#BPMCHANGE 201.99
|
||||
300222200,
|
||||
#BPMCHANGE 172.52
|
||||
300222200,
|
||||
#BPMCHANGE 177.01
|
||||
#MEASURE 4/4
|
||||
6,
|
||||
000000000000000000000000000008000000000000000000,
|
||||
#BPMCHANGE 207.22
|
||||
1110000000000000,//97
|
||||
|
||||
#BPMCHANGE 207.2
|
||||
#GOGOEND
|
||||
|
||||
|
||||
#END
|
||||
|
||||
|
||||
COURSE:Hard
|
||||
LEVEL:6
|
||||
|
||||
#START
|
||||
,
|
||||
11,
|
||||
500000000000000000000008000000000000100000000000,//3
|
||||
|
||||
#GOGOSTART
|
||||
12,
|
||||
100101001101,
|
||||
1,
|
||||
500000000000000000000008000000000000100000000000,
|
||||
12,
|
||||
100101001101,
|
||||
1,
|
||||
,//11
|
||||
|
||||
#SECTION
|
||||
#BRANCHSTART p,50,75
|
||||
#N
|
||||
#GOGOEND
|
||||
1110,
|
||||
1210,
|
||||
1110,
|
||||
0202,
|
||||
1110,
|
||||
1210,
|
||||
1110,
|
||||
0202,
|
||||
1112,
|
||||
100103,
|
||||
0,
|
||||
500000000000000000000000000000000008000000000000,
|
||||
#E
|
||||
#GOGOEND
|
||||
1112,
|
||||
1212,
|
||||
1112,
|
||||
0202,
|
||||
1112,
|
||||
1212,
|
||||
1112,
|
||||
0202,
|
||||
1112,
|
||||
100103,
|
||||
,
|
||||
500000000000000000000000000000000008000000000000,
|
||||
#M
|
||||
#GOGOEND
|
||||
1112,
|
||||
1212,
|
||||
1112,
|
||||
000200002200,
|
||||
1112,
|
||||
1212,
|
||||
1112,
|
||||
000200002200,
|
||||
100100101101,
|
||||
100103,
|
||||
,
|
||||
500000000000000000000000000000000008000000000000,
|
||||
#SECTION
|
||||
#BRANCHSTART p,50,75
|
||||
#N
|
||||
1110,
|
||||
1210,
|
||||
1110,
|
||||
0202,
|
||||
1110,
|
||||
1210,
|
||||
1110,
|
||||
0202,
|
||||
1112,
|
||||
100103,
|
||||
,
|
||||
500000000000000000000000000000000008000000000000,
|
||||
#E
|
||||
1112,
|
||||
1212,
|
||||
1112,
|
||||
0202,
|
||||
1112,
|
||||
1212,
|
||||
1112,
|
||||
0202,
|
||||
1112,
|
||||
100103,
|
||||
,
|
||||
500000000000000000000000000000000008000000000000,
|
||||
#M
|
||||
1112,
|
||||
1212,
|
||||
1112,
|
||||
000200002200,
|
||||
1112,
|
||||
1212,
|
||||
1112,
|
||||
000200002200,
|
||||
100100101101,
|
||||
100103,
|
||||
,
|
||||
500000000000000000000000000000000008000000000000,
|
||||
#SECTION
|
||||
#BRANCHSTART p,50,75
|
||||
#N
|
||||
100100101101,
|
||||
000200002200,
|
||||
100200101101,
|
||||
000200002200,
|
||||
100100101101,
|
||||
000200002200,
|
||||
11,
|
||||
500000000000000000000000000000000008000000000000,//N43
|
||||
#E
|
||||
101101101101,
|
||||
000200002200,
|
||||
100200101101,
|
||||
000200002200,
|
||||
101101101101,
|
||||
000200002200,
|
||||
11,
|
||||
500000000000000000000000000000000008000000000000,//E43
|
||||
#M
|
||||
101101101101,
|
||||
101200002200,
|
||||
100200101101,
|
||||
000200002200,
|
||||
101101101101,
|
||||
101200002200,
|
||||
1212,
|
||||
500000000000000000000000000000000008000000000000,//M43
|
||||
|
||||
#SECTION
|
||||
#BRANCHSTART p,50,75
|
||||
#N
|
||||
#GOGOSTART
|
||||
12,
|
||||
100101001101,
|
||||
1,
|
||||
500000000000000000000008000000000000100000000000,
|
||||
12,
|
||||
100101001101,
|
||||
1,
|
||||
500000000000000000000008000000000000100000000000,
|
||||
12,
|
||||
100001001101,
|
||||
1,
|
||||
,
|
||||
#E
|
||||
#GOGOSTART
|
||||
12,
|
||||
100101001101,
|
||||
12,
|
||||
500000000000000000000008000000000000100000000000,
|
||||
12,
|
||||
100101001101,
|
||||
12,
|
||||
500000000000000000000008000000000000100000000000,
|
||||
12,
|
||||
100001001101,
|
||||
1,
|
||||
2220,
|
||||
#M
|
||||
#GOGOSTART
|
||||
100202100200,
|
||||
100101001101,
|
||||
12,
|
||||
500000000000000000000008000000000000100000000000,
|
||||
100202100200,
|
||||
100101001101,
|
||||
12,
|
||||
500000000000000000000008000000000000100000000000,
|
||||
100202100200,
|
||||
100001001101,
|
||||
1,
|
||||
2220,
|
||||
#SECTION
|
||||
#BRANCHSTART p,50,75
|
||||
#N
|
||||
1111,
|
||||
101100100100,
|
||||
1111,
|
||||
101100100200,
|
||||
100100001100,
|
||||
100100002200,//N61
|
||||
|
||||
#GOGOEND
|
||||
100100001100,
|
||||
100100002200,
|
||||
100100001100,
|
||||
100100002200,
|
||||
100100001100,
|
||||
500000000000000000000000000000000008000000000000,
|
||||
#E
|
||||
1111,
|
||||
101100100200,
|
||||
1111,
|
||||
101100100200,
|
||||
100100001100,
|
||||
100100002200,//E61
|
||||
|
||||
#GOGOEND
|
||||
100100001100,
|
||||
100100002200,
|
||||
100100001100,
|
||||
100100002200,
|
||||
100100001100,
|
||||
500000000000000000000000000000000008000000000000,
|
||||
#M
|
||||
1212,
|
||||
101100100200,
|
||||
1212,
|
||||
101100100200,
|
||||
100100001100,
|
||||
100100002200,//M61
|
||||
|
||||
#GOGOEND
|
||||
100100001100,
|
||||
100100002200,
|
||||
100100001100,
|
||||
100100002200,
|
||||
100100001100,
|
||||
500000000000000000000000000000000008000000000000,
|
||||
#SECTION
|
||||
#BRANCHSTART p,50,75
|
||||
#N
|
||||
#BPMCHANGE 197.6
|
||||
#SCROLL 1.01
|
||||
1011,
|
||||
#BPMCHANGE 202.72
|
||||
#SCROLL 0.98
|
||||
1011,
|
||||
#BPMCHANGE 199.62
|
||||
#SCROLL 1
|
||||
100101000000,
|
||||
#BPMCHANGE 200
|
||||
100101000000,
|
||||
1011,
|
||||
1011,
|
||||
100101000000,
|
||||
100101000000,
|
||||
1011,
|
||||
1011,
|
||||
100101000000,
|
||||
#BPMCHANGE 200.14
|
||||
#SCROLL 0.99
|
||||
500000000000000000000008000000000000100000000000,
|
||||
#E
|
||||
#BPMCHANGE 197.6
|
||||
#SCROLL 1.01
|
||||
11,
|
||||
#BPMCHANGE 202.72
|
||||
#SCROLL 0.98
|
||||
11,
|
||||
#BPMCHANGE 199.62
|
||||
#SCROLL 1
|
||||
100101000000,
|
||||
#BPMCHANGE 200
|
||||
100101000000,
|
||||
11,
|
||||
11,
|
||||
100101000000,
|
||||
100101000000,
|
||||
11,
|
||||
11,
|
||||
100101000000,
|
||||
#BPMCHANGE 200.14
|
||||
#SCROLL 0.99
|
||||
500000000000000000000008000000000000100000000000,//E79
|
||||
#M
|
||||
#BPMCHANGE 197.6
|
||||
#SCROLL 1.01
|
||||
11,
|
||||
#BPMCHANGE 202.72
|
||||
#SCROLL 0.98
|
||||
11,
|
||||
#BPMCHANGE 199.62
|
||||
#SCROLL 1
|
||||
100101000000,
|
||||
#BPMCHANGE 200
|
||||
100101000000,
|
||||
11,
|
||||
11,
|
||||
100101000000,
|
||||
100101000000,
|
||||
11,
|
||||
11,
|
||||
100101000000,
|
||||
#BPMCHANGE 200.14
|
||||
#SCROLL 0.99
|
||||
500000000000000000000008000000000000100000000000,//M79
|
||||
|
||||
#SECTION
|
||||
#BRANCHSTART p,50,75
|
||||
#N
|
||||
#BPMCHANGE 199.88
|
||||
#SCROLL 1
|
||||
#GOGOSTART
|
||||
12,
|
||||
100101001101,
|
||||
1,
|
||||
500000000000000000000008000000000000100000000000,
|
||||
12,
|
||||
100101001101,
|
||||
1,
|
||||
500000000000000000000008000000000000100000000000,
|
||||
12,
|
||||
100001001101,
|
||||
1,
|
||||
,
|
||||
#MEASURE 3/4
|
||||
3,
|
||||
#BPMCHANGE 201.99
|
||||
3,
|
||||
#BPMCHANGE 172.52
|
||||
3,
|
||||
#E
|
||||
#BPMCHANGE 199.88
|
||||
#SCROLL 1
|
||||
#GOGOSTART
|
||||
12,
|
||||
100101001101,
|
||||
12,
|
||||
500000000000000000000008000000000000100000000000,
|
||||
12,
|
||||
100101001101,
|
||||
12,
|
||||
500000000000000000000008000000000000100000000000,
|
||||
12,
|
||||
100001001101,
|
||||
1,
|
||||
,
|
||||
#MEASURE 3/4
|
||||
3,
|
||||
#BPMCHANGE 201.99
|
||||
3,
|
||||
#BPMCHANGE 172.52
|
||||
3,
|
||||
#M
|
||||
#BPMCHANGE 199.88
|
||||
#SCROLL 1
|
||||
#GOGOSTART
|
||||
100202100200,
|
||||
100101001101,
|
||||
12,
|
||||
500000000000000000000008000000000000100000000000,
|
||||
100202100200,
|
||||
100101001101,
|
||||
12,
|
||||
500000000000000000000008000000000000100000000000,
|
||||
100202100200,
|
||||
100001001101,
|
||||
1,
|
||||
,
|
||||
#MEASURE 3/4
|
||||
302220,
|
||||
#BPMCHANGE 201.99
|
||||
302220,
|
||||
#BPMCHANGE 172.52
|
||||
302220,
|
||||
#BRANCHEND
|
||||
#BPMCHANGE 177.01
|
||||
#MEASURE 4/4
|
||||
6,
|
||||
000000000000000000000000000008000000000000000000,
|
||||
#BPMCHANGE 207.22
|
||||
3,//97
|
||||
|
||||
#GOGOEND
|
||||
|
||||
|
||||
#END
|
||||
|
||||
|
||||
COURSE:Normal
|
||||
LEVEL:6
|
||||
SCOREINIT:1010
|
||||
SCOREDIFF:280
|
||||
|
||||
#START
|
||||
#SCROLL 0.8
|
||||
,
|
||||
11,
|
||||
1110,//3
|
||||
|
||||
#GOGOSTART
|
||||
11,
|
||||
10110010,
|
||||
1,
|
||||
500000000000000000000008000000000000000000000000,
|
||||
11,
|
||||
10110010,
|
||||
1,
|
||||
,//11
|
||||
|
||||
#GOGOEND
|
||||
1110,
|
||||
1120,
|
||||
1110,
|
||||
0202,
|
||||
1110,
|
||||
1120,
|
||||
1110,
|
||||
0202,
|
||||
1110,
|
||||
00001003,
|
||||
,
|
||||
500000000000000000000000000000000008000000000000,
|
||||
1110,
|
||||
1120,
|
||||
1110,
|
||||
1202,
|
||||
1110,
|
||||
1120,
|
||||
1110,
|
||||
1202,
|
||||
1110,
|
||||
00001003,
|
||||
,
|
||||
500000000000000000000000000000000008000000000000,
|
||||
1212,
|
||||
0202,
|
||||
1212,
|
||||
0202,
|
||||
1212,
|
||||
0202,
|
||||
11,
|
||||
2220,//43
|
||||
|
||||
#GOGOSTART
|
||||
12,
|
||||
10110010,
|
||||
1,
|
||||
500000000000000000000008000000000000000000000000,
|
||||
12,
|
||||
10110010,
|
||||
1,
|
||||
500000000000000000000008000000000000000000000000,
|
||||
12,
|
||||
10110010,
|
||||
12,
|
||||
500000000000000000000008000000000000000000000000,
|
||||
2121,
|
||||
0101,
|
||||
2121,
|
||||
0101,
|
||||
500000000000000000000000000000000000000000000008,
|
||||
,//61
|
||||
|
||||
#GOGOEND
|
||||
,
|
||||
,
|
||||
0002,
|
||||
0002,
|
||||
0002,
|
||||
500000000000000000000000000000000008000000000000,
|
||||
#BPMCHANGE 197.6
|
||||
#SCROLL 1.01
|
||||
11,
|
||||
#BPMCHANGE 202.72
|
||||
#SCROLL 0.98
|
||||
1001,
|
||||
#BPMCHANGE 199.62
|
||||
#SCROLL 1
|
||||
11,
|
||||
#BPMCHANGE 200
|
||||
1,
|
||||
11,
|
||||
1001,
|
||||
11,
|
||||
1,
|
||||
11,
|
||||
1001,
|
||||
1,
|
||||
#BPMCHANGE 200.14
|
||||
#SCROLL 0.99
|
||||
500000000000000000000008000000000000100000000000,//79
|
||||
|
||||
#BPMCHANGE 199.88
|
||||
#SCROLL 1
|
||||
#GOGOSTART
|
||||
12,
|
||||
10110010,
|
||||
1,
|
||||
500000000000000000000008000000000000100000000000,
|
||||
12,
|
||||
10110010,
|
||||
1,
|
||||
500000000000000000000008000000000000100000000000,
|
||||
12,
|
||||
1011,
|
||||
1,
|
||||
,
|
||||
#MEASURE 3/4
|
||||
3,
|
||||
#BPMCHANGE 201.99
|
||||
3,
|
||||
#BPMCHANGE 172.52
|
||||
3,
|
||||
#BPMCHANGE 177.01
|
||||
#MEASURE 4/4
|
||||
6,
|
||||
000000000000000000000000000008000000000000000000,
|
||||
#BPMCHANGE 207.22
|
||||
3,//97
|
||||
|
||||
#BPMCHANGE 207.2
|
||||
#GOGOEND
|
||||
,
|
||||
,
|
||||
#END
|
||||
|
||||
COURSE:Easy
|
||||
LEVEL:4
|
||||
BALLOON:3,3
|
||||
SCOREINIT:780
|
||||
SCOREDIFF:220
|
||||
|
||||
#START
|
||||
#SCROLL 0.8
|
||||
,
|
||||
,
|
||||
,//3
|
||||
|
||||
#GOGOSTART
|
||||
11,
|
||||
1001,
|
||||
1,
|
||||
500000000000000000000008000000000000000000000000,
|
||||
11,
|
||||
1001,
|
||||
1,
|
||||
,//11
|
||||
|
||||
#GOGOEND
|
||||
11,
|
||||
1110,
|
||||
11,
|
||||
1,
|
||||
11,
|
||||
1110,
|
||||
11,
|
||||
1,
|
||||
1110,
|
||||
17,
|
||||
8,
|
||||
500000000000000000000000000008000000000000000000,
|
||||
11,
|
||||
11,
|
||||
1110,
|
||||
1,
|
||||
11,
|
||||
11,
|
||||
1110,
|
||||
1,
|
||||
1110,
|
||||
17,
|
||||
8,
|
||||
500000000000000000000000000008000000000000000000,
|
||||
11,
|
||||
2,
|
||||
11,
|
||||
2,
|
||||
11,
|
||||
2,
|
||||
11,
|
||||
3,//43
|
||||
|
||||
#GOGOSTART
|
||||
12,
|
||||
1001,
|
||||
1,
|
||||
500000000000000000000000000008000000000000000000,
|
||||
12,
|
||||
1001,
|
||||
1,
|
||||
500000000000000000000000000008000000000000000000,
|
||||
12,
|
||||
1001,
|
||||
1,
|
||||
500000000000000000000000000008000000000000000000,
|
||||
22,
|
||||
2,
|
||||
22,
|
||||
2,
|
||||
500000000000000000000000000000000000000000000008,
|
||||
,//61
|
||||
|
||||
#GOGOEND
|
||||
,
|
||||
,
|
||||
1,
|
||||
1,
|
||||
11,
|
||||
500000000000000000000000000008000000000000000000,
|
||||
#BPMCHANGE 197.6
|
||||
#SCROLL 1.01
|
||||
11,
|
||||
#BPMCHANGE 202.72
|
||||
#SCROLL 0.98
|
||||
1001,
|
||||
#BPMCHANGE 199.62
|
||||
#SCROLL 1
|
||||
11,
|
||||
#BPMCHANGE 200
|
||||
1,
|
||||
11,
|
||||
1001,
|
||||
11,
|
||||
1,
|
||||
11,
|
||||
1001,
|
||||
1,
|
||||
#BPMCHANGE 200.14
|
||||
#SCROLL 0.99
|
||||
500000000000000000000008000000000000000000000000,//79
|
||||
|
||||
#BPMCHANGE 199.88
|
||||
#SCROLL 1
|
||||
#GOGOSTART
|
||||
12,
|
||||
1001,
|
||||
12,
|
||||
500000000000000000000008000000000000000000000000,
|
||||
12,
|
||||
1001,
|
||||
12,
|
||||
500000000000000000000008000000000000000000000000,
|
||||
12,
|
||||
1001,
|
||||
12,
|
||||
22,
|
||||
#MEASURE 3/4
|
||||
3,
|
||||
#BPMCHANGE 201.99
|
||||
3,
|
||||
#BPMCHANGE 172.52
|
||||
3,
|
||||
#BPMCHANGE 177.01
|
||||
#MEASURE 4/4
|
||||
6,
|
||||
000000000000000000000000000008000000000000000000,
|
||||
#BPMCHANGE 207.22
|
||||
3,//97
|
||||
|
||||
#BPMCHANGE 207.2
|
||||
#GOGOEND
|
||||
,
|
||||
,
|
||||
#END
|
||||
Reference in New Issue
Block a user