This commit is contained in:
2026-03-04 23:59:27 +09:00
parent 6e0312f5b4
commit 4b4e2b8c98
1128 changed files with 668765 additions and 0 deletions

546
tja/612.tja Normal file
View File

@@ -0,0 +1,546 @@
//TJADB Project
TITLE:Antonio
TITLEJA:アントニオ
SUBTITLE:--Youll Melt More!
SUBTITLEJA:ゆるめるモ!
BPM:158
WAVE:Antonio.ogg
OFFSET:-1.631
DEMOSTART:101.883
//Shinuchi: 5270/3480/2120/1360
COURSE:Oni
LEVEL:9
BALLOON:5,5
SCOREINIT:470,1380
SCOREDIFF:115
#START
0,
0222,
0222,
02211221,
#GOGOSTART
1022221000112011,
1200112000100011,
1022102210200011,
1200112000100011,
1011201120100000, //9
#GOGOEND
1022201000102010,
0022102210202010,
1020201222102010,
0,
1022201000102010,
0022102210221010,
12210121,
0020102010102210, //17
1220201000102010,
0022102210221022,
1020201000102011,
1010200010102210,
0000202210102010,
0010202210002210,
1120202210002010,
0020102210002210,
#GOGOSTART
121212700800,
212121700800,
102010201020111110102020,
201020102010222220201010, //29
#GOGOEND
00002022,
02022000,
10102021,
01102022,
1020002211222010,
0,
1020002211122010,
0, //37
1220221000102011,
1120201010002210,
1010201000102210,
0020111020102210,
1220221000102011,
1120201010202210,
1010201000102210,
0020111020102210, //45
00102012,
02122010,
20102012,
02102012,
1000200010002022,
1002102010202220,
0000300000004022,
1002102010202000,
#GOGOSTART
1120112011201120,
1121121120112010,
2210221022102210,
2212212210221020, //57
#GOGOEND
1000200010002011,
2011201010002000,
1000200010002022,
1022102010002000,
1000200010002022,
1002102010202000,
1000400010004022,
1002102000202000,
11140400, //66
1000000020111010,
1020100020102210,
10112101,
1020101020102210,
1000100020111010,
1020101020102210,
2210102010201020,
2211222000200011, //74
#GOGOSTART
1000200012201020,
1020101022102210,
1110202210221020,
1120101120112210,
1000222020102210,
1122111022102210,
2210102211221111,
2222112000202211, //82
#GOGOEND
1001001020102210,
0020101020102210,
0020111122100020,
1112221120102210,
0020101020102210,
0020111222100011,
#GOGOSTART
1200112000100011,
1122101112001120,
0010001111221000,
2210000000000000,
#GOGOEND
0, //93
#END
COURSE:Hard
LEVEL:6
BALLOON:4,7
SCOREINIT:530,2250
SCOREDIFF:143
#START
0,
0222,
0222,
0222,
#GOGOSTART
12210112,
0200202000200011,
11111202,
0200202000200011,
11111200, //9
#GOGOEND
1000001000100011,
11201020,
10210121,
00002220,
1000001000100011,
11201020,
11210121,
00001120, //17
1000201000102011,
11201120,
1000201000102011,
11202122,
00210121,
01210121,
10210121,
01210121,
#GOGOSTART
300000003000000030000000600000000000000008000000,
300000003000000030000000600000000000000008000000,
303030700800,
333700, //29
#GOGOEND
80002002,
02022000,
20002002,
02202020,
1020001110100010,
0,
1020001110100010,
0, //37
10210121,
01201021,
10210121,
0020200020002220,
10210121,
01221021,
11210121,
0020200020002220, //45
0101,
0101,
0101,
0101,
1212,
1001101000202000,
0304,
1001101000202000,
#GOGOSTART
500000000000000000000008000000100000000000100100,
1001101000200000,
500000000000000000000008000000100000000000100100,
1001101000200000, //57
#GOGOEND
10201022,
02021020,
10201022,
02201020,
1000200010002022,
2002202000202000,
1324,
1001101000202000,
10040400, //66
0122,
1122,
10120202,
10120202,
1121,
500000000000000008000000200000000000100000000000,
2022202000200020,
1011101000100000, //74
#GOGOSTART
10201212,
1000200020102220,
1000201110200020,
1000102220100010,
1121,
500000000000000008000000200000000000200200200000,
2000222000200020,
1000111000100000, //82
#GOGOEND
1001001020101000,
01012021,
0020101022200020,
1001001020101110,
01012121,
0020101011100020,
#GOGOSTART
0200202000200011,
1011102002002020,
0020001110111000,
03000000,
#GOGOEND
0, //93
#END
COURSE:Normal
LEVEL:6
BALLOON:3,4,3
SCOREINIT:720,3800
SCOREDIFF:220
#START
0,
0222,
0222,
0222,
#GOGOSTART
10010102,
00200201,
01010102,
00200201,
01010100, //9
#GOGOEND
10010101,
0210,
10010101,
0022,
10010101,
0210,
10010101,
0022, //17
10010101,
0222,
10010101,
0022,
0202,
0202,
0202,
0202,
#GOGOSTART
300000003000000030000000600000000000000008000000,
300000003000000030000000600000000000000008000000,
303030700800,
300030003000900000000900, //29
#GOGOEND
8,
0,
22,
2222,
10010101,
0,
10010101,
0, //37
10010101,
0210,
10010101,
0022,
10010101,
0210,
10010101,
0222, //45
0101,
0101,
0101,
0101,
1212,
1001001000001000,
0304,
1001001000002000,
#GOGOSTART
500000000000000000000000000000000008000000000000,
1001001000200000,
500000000000000000000000000000000008000000000000,
1001001000200000, //57
#GOGOEND
10201002,
02022000,
10201002,
02202000,
1210,
2002002000202000,
0304,
1001001000101000,
20040400, //66
0120,
1120,
10110100,
20220200,
1120,
1021,
10010100,
20020200, //74
#GOGOSTART
1211,
1211,
10210101,
10210101,
1120,
500000000000000008000000200000000000000000000000,
20220200,
10110100, //82
#GOGOEND
10010010,
01001010,
01001000,
10010010,
01001001,
00100102,
#GOGOSTART
00200205,
000008000000000000200000000000000000200000000000,
02070080,
03000000,
#GOGOEND
0, //93
#END
COURSE:Easy
LEVEL:4
BALLOON:4,4,3,2,3,4,5,6,4,4
SCOREINIT:660,5970
SCOREDIFF:165
#START
0,
0222,
0222,
0222,
#GOGOSTART
00000007,
00000805,
000000000000000000000000000008000000000000700000,
00000805,
000000000000000000000000000008000000000000000000, //9
#GOGOEND
10010001,
0110,
10010001,
0,
10010001,
0110,
10010001,
02, //17
10010001,
0110,
10010001,
02,
0202,
0202,
0202,
0202,
#GOGOSTART
600000000000000000000000000000000008000000000000,
600000000000000000000000000000000008000000000000,
33,
30009009, //29
#GOGOEND
8,
0,
22,
2220,
10010001,
0,
10010001,
0, //37
10010001,
0110,
10010001,
02,
10010001,
0110,
10010001,
0022, //45
0101,
0101,
0101,
0101,
12,
1022,
0303,
10010010,
#GOGOSTART
500000000000000000000000000000000008000000000000,
10010000,
500000000000000000000000000000000008000000000000,
10010000, //57
#GOGOEND
10001002,
02002000,
10001002,
02002000,
11,
20020020,
0303,
10010010,
10040400, //66
0111,
11,
10010100,
20020200,
0111,
11,
10010100,
20020200, //74
#GOGOSTART
0111,
11,
10010100,
20020200,
0111,
11,
10010100,
20020200, //82
#GOGOEND
78,
78,
78,
78,
900000000000000090000800,
00000007,
#GOGOSTART
00000806,
000008000000000000700000000000000000000000000000,
000000800000000000600000000000000008000000000000,
03000000,
#GOGOEND
0, //93
#END