tja
This commit is contained in:
606
tja/621.tja
Normal file
606
tja/621.tja
Normal file
@@ -0,0 +1,606 @@
|
||||
//TJADB Project
|
||||
TITLE:Orb no Inori
|
||||
TITLEJA:オーブの祈り
|
||||
SUBTITLE:--Ichiro Mizuki feat. Voyager/Ultraman Orb
|
||||
SUBTITLEJA:「ウルトラマンオーブ」より
|
||||
BPM:156
|
||||
WAVE:Orb no Inori.ogg
|
||||
OFFSET:-1.806
|
||||
DEMOSTART:57.094
|
||||
|
||||
//shinuchi: 5240/3080/1820/870
|
||||
|
||||
COURSE:Oni
|
||||
LEVEL:10
|
||||
BALLOON:3,5,15,5,15,5,15,50
|
||||
SCOREINIT:340,940
|
||||
SCOREDIFF:73
|
||||
|
||||
#START
|
||||
#BARLINEOFF
|
||||
#MEASURE 1/8
|
||||
22,
|
||||
#BARLINEON
|
||||
#MEASURE 4/4
|
||||
#GOGOSTART
|
||||
10001113,
|
||||
0000222222112211,
|
||||
1022202210101011,
|
||||
1111111110101010,
|
||||
#GOGOEND
|
||||
221111221111
|
||||
#GOGOSTART
|
||||
2000, //6
|
||||
#GOGOEND
|
||||
|
||||
2211221000112210,
|
||||
2211221000122110,
|
||||
2211221000221120,
|
||||
2222111122221111,
|
||||
2011201220222010,
|
||||
2020000022112211, //12
|
||||
|
||||
11020110,
|
||||
11020101,
|
||||
11020110,
|
||||
1000201000102211,
|
||||
|
||||
11020110,
|
||||
11020101,
|
||||
11020110,
|
||||
1111201112102211, //20
|
||||
|
||||
1010201022102012,
|
||||
1011201222102210,
|
||||
1010201022102012,
|
||||
1111201112102211,
|
||||
|
||||
1010201022102012,
|
||||
1111201210102210,
|
||||
1010201022211020,
|
||||
1111201112102210, //28
|
||||
|
||||
11012011,
|
||||
200000100100200000100100200010001000200000100000,
|
||||
7080001022120010,
|
||||
1111201112102211,
|
||||
|
||||
1010201110102011,
|
||||
1010201112102011,
|
||||
2011201120112011,
|
||||
2122112122112211,
|
||||
22002230, //37
|
||||
|
||||
#GOGOSTART
|
||||
2111202120112021,
|
||||
2111211120212110,
|
||||
2111201021112210,
|
||||
2212112212112210,
|
||||
|
||||
2111202120112021,
|
||||
2120201120112122,
|
||||
2010211120212210,
|
||||
1121221121221120, //45
|
||||
|
||||
2111202120112021,
|
||||
2111211120212110,
|
||||
2111201021112210,
|
||||
2212112212112210,
|
||||
|
||||
2121221120102210,
|
||||
2121201121202210,
|
||||
2121221122221111,
|
||||
2078,
|
||||
7008,
|
||||
2211112211112222, //55
|
||||
#GOGOEND
|
||||
|
||||
10222022,
|
||||
30223230,
|
||||
30222022,
|
||||
1010101012221000,
|
||||
|
||||
#MEASURE 3/4
|
||||
112020002210,
|
||||
111022112211,
|
||||
221022102210,
|
||||
221122221211, //63
|
||||
|
||||
#MEASURE 4/4
|
||||
1011201121112010,
|
||||
2011201121112000,
|
||||
200000100100200000100000200200100100200010001000,
|
||||
200010001000200010001000200100100100200200100100,
|
||||
|
||||
2111211120112010,
|
||||
2211211170008000,
|
||||
200010001000200100100100200100100100200010001000,
|
||||
200200101010200200101010200200101010200200101010,
|
||||
2000200022112211,
|
||||
7008, //73
|
||||
|
||||
#GOGOSTART
|
||||
2111202120112021,
|
||||
2111211120212110,
|
||||
2111201021112210,
|
||||
2212112212112210,
|
||||
|
||||
2111202120112021,
|
||||
2120201120112122,
|
||||
2010211120212210,
|
||||
1121221121221120, //81
|
||||
|
||||
2111202120112021,
|
||||
2111211120212110,
|
||||
2111201021112210,
|
||||
2212112212112210,
|
||||
|
||||
2121221120102210,
|
||||
2121201121202210,
|
||||
2121221122221111,
|
||||
2078,
|
||||
7008,
|
||||
2211112211112222, //91
|
||||
#GOGOEND
|
||||
|
||||
2211221000112210,
|
||||
2211221000122110,
|
||||
2211221000221120,
|
||||
2222111122221111,
|
||||
2011201220222010,
|
||||
2020000022112211, //97
|
||||
|
||||
7,
|
||||
#BARLINEOFF
|
||||
0,
|
||||
0,
|
||||
8000000000002210,
|
||||
0, //102
|
||||
#END
|
||||
|
||||
|
||||
COURSE:Hard
|
||||
LEVEL:6
|
||||
BALLOON:8,12,10,3,3,8,6,3,10,10,50
|
||||
SCOREINIT:490,2080
|
||||
SCOREDIFF:105
|
||||
|
||||
#START
|
||||
#BARLINEOFF
|
||||
#MEASURE 1/8
|
||||
0,
|
||||
#BARLINEON
|
||||
#MEASURE 4/4
|
||||
#GOGOSTART
|
||||
30001116,
|
||||
000000000000000000000000000000000008000000000000,
|
||||
3022202010101060,
|
||||
000000000000000000000000000000000000000000000008,
|
||||
#GOGOEND
|
||||
000
|
||||
#GOGOSTART
|
||||
4, //6
|
||||
#GOGOEND
|
||||
|
||||
2010201000111010,
|
||||
2010201000111010,
|
||||
2010201000111010,
|
||||
2121,
|
||||
78,
|
||||
44000000, //12
|
||||
|
||||
11020110,
|
||||
11020101,
|
||||
11020110,
|
||||
1000201000101110,
|
||||
|
||||
11020110,
|
||||
11020101,
|
||||
11020110,
|
||||
1000201110102000, //20
|
||||
|
||||
11210120,
|
||||
11210121,
|
||||
11210120,
|
||||
1000201110102000,
|
||||
|
||||
11210120,
|
||||
11210121,
|
||||
11210120,
|
||||
1000201110102000, //28
|
||||
|
||||
11012000,
|
||||
11012000,
|
||||
11012000,
|
||||
1000201000101110,
|
||||
|
||||
11110120,
|
||||
11110120,
|
||||
2022200020222000,
|
||||
7008,
|
||||
44000030, //37
|
||||
|
||||
#GOGOSTART
|
||||
1110201010102050,
|
||||
000000000000000008000000000000200000200000000000,
|
||||
1110200011102000,
|
||||
500000000000000000000000000008000000000000000000,
|
||||
|
||||
1110201010111020,
|
||||
2022201010111010,
|
||||
1000200010222050,
|
||||
000000000000000000000000000008000000000000000000, //45
|
||||
|
||||
1110201010102050,
|
||||
000000000000000008000000000000200000200000000000,
|
||||
1110200011102000,
|
||||
500000000000000000000000000008000000000000000000,
|
||||
|
||||
1010201110102000,
|
||||
1010201110102000,
|
||||
1010101011101110,
|
||||
34,
|
||||
9009,
|
||||
8, //55
|
||||
#GOGOEND
|
||||
|
||||
3,
|
||||
3033,
|
||||
3,
|
||||
11111020,
|
||||
|
||||
#MEASURE 3/4
|
||||
782,
|
||||
782,
|
||||
111,
|
||||
708, //63
|
||||
|
||||
#MEASURE 4/4
|
||||
1011101010101000,
|
||||
2022202020202000,
|
||||
2020202022202000,
|
||||
200020002000200000000000100100100100100000000000,
|
||||
|
||||
70080110,
|
||||
1111100070008000,
|
||||
200020002000200000000000100100100100100000000000,
|
||||
500000000000000000000000000000000000000008000000,
|
||||
3300,
|
||||
7008, //73
|
||||
|
||||
#GOGOSTART
|
||||
1110201010102050,
|
||||
000000000000000008000000000000200000200000000000,
|
||||
1110200011102000,
|
||||
500000000000000000000000000008000000000000000000,
|
||||
|
||||
1110201010111020,
|
||||
2022201010111010,
|
||||
1000200010222050,
|
||||
000000000000000000000008000000000000000000000000, //81
|
||||
|
||||
1110201010102050,
|
||||
000000000000000008000000000000200000200000000000,
|
||||
1110200011102000,
|
||||
500000000000000000000000000008000000000000000000,
|
||||
|
||||
1010201110102000,
|
||||
1010201110102000,
|
||||
1010101011101110,
|
||||
34,
|
||||
9009,
|
||||
8, //91
|
||||
#GOGOEND
|
||||
|
||||
2010201000111010,
|
||||
2010201000111010,
|
||||
2010201000111010,
|
||||
2121,
|
||||
1010101011101110,
|
||||
44000000, //97
|
||||
|
||||
7,
|
||||
#BARLINEOFF
|
||||
0,
|
||||
0,
|
||||
00000008,
|
||||
0, //102
|
||||
#END
|
||||
|
||||
|
||||
COURSE:Normal
|
||||
LEVEL:5
|
||||
BALLOON:5,9,7,7,6,2,2,8,6,7,8
|
||||
SCOREINIT:640,3790
|
||||
SCOREDIFF:135
|
||||
|
||||
#START
|
||||
#BARLINEOFF
|
||||
#MEASURE 1/8
|
||||
0,
|
||||
#BARLINEON
|
||||
#MEASURE 4/4
|
||||
#GOGOSTART
|
||||
30001116,
|
||||
000000000000000000000000000000000008000000000000,
|
||||
30001116,
|
||||
000000000000000000000000000000000000000000000008,
|
||||
#GOGOEND
|
||||
000
|
||||
#GOGOSTART
|
||||
4, //6
|
||||
#GOGOEND
|
||||
|
||||
10110000,
|
||||
10110000,
|
||||
10110000,
|
||||
2121,
|
||||
78,
|
||||
44000000, //12
|
||||
|
||||
00111020,
|
||||
10010000,
|
||||
00111020,
|
||||
10010020,
|
||||
|
||||
00111020,
|
||||
10010011,
|
||||
1110,
|
||||
10020020, //20
|
||||
|
||||
10201011,
|
||||
10010000,
|
||||
10201011,
|
||||
10020020,
|
||||
|
||||
10201011,
|
||||
10020011,
|
||||
1110,
|
||||
500000000000000000000000000008000000000000000000, //28
|
||||
|
||||
10011000,
|
||||
10011000,
|
||||
10011000,
|
||||
10010010,
|
||||
|
||||
11110000,
|
||||
11110000,
|
||||
2222,
|
||||
7008,
|
||||
44000030, //37
|
||||
|
||||
#GOGOSTART
|
||||
10011015,
|
||||
000000000000000008000000000000200000200000000000,
|
||||
1111,
|
||||
500000000000000000000000000008000000000000000000,
|
||||
|
||||
500000000008000000000000100000100000000000000000,
|
||||
22001100,
|
||||
1111,
|
||||
70000800, //45
|
||||
|
||||
10011015,
|
||||
000000000000000008000000000000200000200000000000,
|
||||
1111,
|
||||
500000000000000000000000000008000000000000000000,
|
||||
|
||||
11110011,
|
||||
11000000,
|
||||
33303030,
|
||||
34,
|
||||
9009,
|
||||
8, //55
|
||||
#GOGOEND
|
||||
|
||||
3,
|
||||
3033,
|
||||
3,
|
||||
11111020,
|
||||
|
||||
#MEASURE 3/4
|
||||
112,
|
||||
101110,
|
||||
122,
|
||||
500000000000000000000008000000000000, //63
|
||||
|
||||
#MEASURE 4/4
|
||||
10111010,
|
||||
10111010,
|
||||
22202220,
|
||||
1211,
|
||||
|
||||
7081,
|
||||
7878,
|
||||
1111,
|
||||
500000000000000000000000000000000000000008000000,
|
||||
3300,
|
||||
7008, //73
|
||||
|
||||
#GOGOSTART
|
||||
10011015,
|
||||
000000000000000008000000000000200000200000000000,
|
||||
1111,
|
||||
500000000000000000000000000008000000000000000000,
|
||||
|
||||
500000000008000000000000100000100000000000000000,
|
||||
22001100,
|
||||
1111,
|
||||
78, //81
|
||||
|
||||
10011015,
|
||||
000000000000000008000000000000200000200000000000,
|
||||
1111,
|
||||
500000000000000000000000000008000000000000000000,
|
||||
|
||||
11110011,
|
||||
11000000,
|
||||
33303030,
|
||||
34,
|
||||
9009,
|
||||
8, //91
|
||||
#GOGOEND
|
||||
|
||||
10110000,
|
||||
10110000,
|
||||
10110000,
|
||||
2121,
|
||||
7008,
|
||||
44000000, //97
|
||||
|
||||
6,
|
||||
#BARLINEOFF
|
||||
0,
|
||||
0,
|
||||
000000000000000000000000000000000000000008000000,
|
||||
0, //102
|
||||
#END
|
||||
|
||||
|
||||
COURSE:Easy
|
||||
LEVEL:3
|
||||
BALLOON:6,6,6,6
|
||||
SCOREINIT:600,6590
|
||||
SCOREDIFF:150
|
||||
|
||||
#START
|
||||
#BARLINEOFF
|
||||
#MEASURE 1/8
|
||||
0,
|
||||
#BARLINEON
|
||||
#MEASURE 4/4
|
||||
#GOGOSTART
|
||||
30000006,
|
||||
000000000000000000000000000000000008000000000000,
|
||||
30000006,
|
||||
000000000000000000000000000000000000000000000008,
|
||||
#GOGOEND
|
||||
000
|
||||
#GOGOSTART
|
||||
0, //6
|
||||
#GOGOEND
|
||||
|
||||
1100,
|
||||
1100,
|
||||
1100,
|
||||
11,
|
||||
600000000000000000000000000008000000000000000000,
|
||||
4, //12
|
||||
|
||||
1,
|
||||
1100,
|
||||
1,
|
||||
1100,
|
||||
|
||||
1,
|
||||
1100,
|
||||
12,
|
||||
500000000000000000000000000008000000000000000000, //20
|
||||
|
||||
1100,
|
||||
1,
|
||||
1100,
|
||||
1,
|
||||
|
||||
1100,
|
||||
1,
|
||||
12,
|
||||
500000000000000000000000000008000000000000000000, //28
|
||||
|
||||
12,
|
||||
12,
|
||||
12,
|
||||
1001,
|
||||
|
||||
1001,
|
||||
1001,
|
||||
11,
|
||||
7008,
|
||||
4003, //37
|
||||
|
||||
#GOGOSTART
|
||||
10001005,
|
||||
000000000000000008000000000000000000000000000000,
|
||||
1111,
|
||||
500000000000000000000000000008000000000000000000,
|
||||
|
||||
1011,
|
||||
1011,
|
||||
11,
|
||||
500000000000000000000000000008000000000000000000, //45
|
||||
|
||||
10001005,
|
||||
000000000000000008000000000000000000000000000000,
|
||||
1111,
|
||||
500000000000000000000000000008000000000000000000,
|
||||
|
||||
1101,
|
||||
1,
|
||||
3333,
|
||||
34,
|
||||
9009,
|
||||
8, //55
|
||||
#GOGOEND
|
||||
|
||||
3,
|
||||
3033,
|
||||
3,
|
||||
3033,
|
||||
|
||||
#MEASURE 3/4
|
||||
1,
|
||||
2,
|
||||
1,
|
||||
500000000000000008000000000000000000, //63
|
||||
|
||||
#MEASURE 4/4
|
||||
1111,
|
||||
1110,
|
||||
2222,
|
||||
2220,
|
||||
|
||||
500000000000000000000000000008000000000000000000,
|
||||
500000000000000000000000000008000000000000000000,
|
||||
1111,
|
||||
500000000000000000000000000008000000000000000000,
|
||||
3300,
|
||||
7008, //73
|
||||
|
||||
#GOGOSTART
|
||||
10001005,
|
||||
000000000000000008000000000000000000000000000000,
|
||||
1111,
|
||||
500000000000000000000000000008000000000000000000,
|
||||
|
||||
1011,
|
||||
1011,
|
||||
11,
|
||||
500000000000000000000008000000000000000000000000, //81
|
||||
|
||||
10001005,
|
||||
000000000000000008000000000000000000000000000000,
|
||||
1111,
|
||||
500000000000000000000000000008000000000000000000,
|
||||
|
||||
1101,
|
||||
1,
|
||||
3333,
|
||||
34,
|
||||
9009,
|
||||
8, //91
|
||||
#GOGOEND
|
||||
|
||||
1100,
|
||||
1100,
|
||||
1100,
|
||||
11,
|
||||
500000000000000000000000000008000000000000000000,
|
||||
4, //97
|
||||
|
||||
6,
|
||||
#BARLINEOFF
|
||||
0,
|
||||
0,
|
||||
000000000000000000000000000000000000000008000000,
|
||||
0, //102
|
||||
#END
|
||||
Reference in New Issue
Block a user