tja
This commit is contained in:
429
tja/635.tja
Normal file
429
tja/635.tja
Normal file
@@ -0,0 +1,429 @@
|
||||
//TJADB Project
|
||||
TITLE:Susanoo
|
||||
TITLEJA:須佐之男
|
||||
SUBTITLE:--Tatsh a.k.a Zeami
|
||||
SUBTITLEJA:Tatsh a.k.a 世阿弥
|
||||
BPM:110
|
||||
WAVE:Susanoo.ogg
|
||||
OFFSET:-2.318
|
||||
DEMOSTART:70.931
|
||||
|
||||
COURSE:Oni
|
||||
LEVEL:10
|
||||
BALLOON:7
|
||||
SCOREINIT:520
|
||||
SCOREDIFF:120
|
||||
|
||||
|
||||
#START
|
||||
|
||||
|
||||
1010102202022010,
|
||||
1010102202022012,
|
||||
1010101101012011,
|
||||
1010101102012011,
|
||||
1010101101012011,
|
||||
1010101102012011,
|
||||
1010101101012012,
|
||||
1010101102012011,
|
||||
1010101101012012,
|
||||
1010101102012011,
|
||||
1121201121201011,
|
||||
1211201211201011,
|
||||
1121201121201011,
|
||||
1211201211201011,
|
||||
1122201122201011,
|
||||
2211202211201011,
|
||||
1122201122201011,
|
||||
1010201101012011,
|
||||
1010201101012011,
|
||||
1010201101012011,
|
||||
1010201101012211,
|
||||
,
|
||||
#BARLINEOFF
|
||||
00000000
|
||||
#SCROLL 1.64
|
||||
1222
|
||||
#BPMCHANGE 180
|
||||
#SCROLL 1
|
||||
2211,
|
||||
#BARLINEON
|
||||
1,
|
||||
,
|
||||
3,
|
||||
0000000011221122,
|
||||
1110201210201110,
|
||||
2012102011221122,
|
||||
1110201210201110,
|
||||
2012102022112211,
|
||||
2210201210202210,
|
||||
2012102011221120,
|
||||
#BPMCHANGE 90
|
||||
1010202011012000,
|
||||
1002211210002121,
|
||||
|
||||
#GOGOSTART
|
||||
#BPMCHANGE 180
|
||||
1110102011101020,
|
||||
100100100000100000200200100000202020200000100000,
|
||||
1022102010221020,
|
||||
1122122210221122,
|
||||
1110102011101020,
|
||||
100100100000100000200200100000202020100000200000,
|
||||
1211202010221020,
|
||||
1122112211112222,
|
||||
1110102011101020,
|
||||
100100100000100000200200100000202020200000100000,
|
||||
1022102010221220,
|
||||
1122122700000080,
|
||||
|
||||
#GOGOEND
|
||||
#BPMCHANGE 90
|
||||
1111222210102022,
|
||||
100000202020100000200000100000100000200200100100,
|
||||
1121112111211120,
|
||||
#BPMCHANGE 180
|
||||
3000221122211010,
|
||||
1222101010221010,
|
||||
3000301220201221,
|
||||
2012202210221210,
|
||||
3030302211221121,
|
||||
2221222110220020,
|
||||
3000122210202010,
|
||||
#BPMCHANGE 140
|
||||
#SCROLL 1.29
|
||||
100000200000200000100000100020002000100100200200,
|
||||
|
||||
#GOGOSTART
|
||||
#BPMCHANGE 180
|
||||
#SCROLL 1
|
||||
1001022011221010,
|
||||
200020001000100000200000200100100200200100100200,
|
||||
2011022010102211,
|
||||
2021012020112211,
|
||||
2000
|
||||
|
||||
#GOGOEND
|
||||
#BPMCHANGE 120
|
||||
300010111020,
|
||||
100000100100100000100100100000002000100020000000,
|
||||
10111111
|
||||
#BPMCHANGE 220
|
||||
12121222,
|
||||
11010030,
|
||||
|
||||
|
||||
#END
|
||||
|
||||
|
||||
COURSE:Hard
|
||||
LEVEL:8
|
||||
BALLOON:5
|
||||
SCOREINIT:600
|
||||
SCOREDIFF:160
|
||||
|
||||
#START
|
||||
1010100101002000,
|
||||
1010100101002000,
|
||||
1010100101012010,
|
||||
1010100101012010,
|
||||
1010100101012010,
|
||||
1010100101012010,
|
||||
1010100101012010,
|
||||
1010100101012010,
|
||||
1010100101012010,
|
||||
1010100101012010,
|
||||
1011101011100010,
|
||||
1022201022200010,
|
||||
2022202022200010,
|
||||
1011101011100010,
|
||||
2022202022200010,
|
||||
1022201022200010,
|
||||
1011101011100010,
|
||||
1010200101012010,
|
||||
1010200101012010,
|
||||
1010200101012010,
|
||||
1010200101012011,
|
||||
,
|
||||
#BARLINEOFF
|
||||
00
|
||||
#SCROLL 1.636
|
||||
0
|
||||
#BPMCHANGE 180
|
||||
#SCROLL 1
|
||||
0,
|
||||
#BARLINEON
|
||||
3,
|
||||
,
|
||||
3,
|
||||
,
|
||||
11011011,
|
||||
01102122,
|
||||
11011011,
|
||||
01112122,
|
||||
11011011,
|
||||
01112122,
|
||||
#BPMCHANGE 90
|
||||
1010202011012000,
|
||||
1002221110002000,//35
|
||||
|
||||
#BPMCHANGE 180
|
||||
#GOGOSTART
|
||||
11121112,
|
||||
11121122,
|
||||
11121112,
|
||||
11121221,
|
||||
11121112,
|
||||
11121122,
|
||||
11121112,
|
||||
10101221,
|
||||
11121112,
|
||||
11121122,
|
||||
11121112,
|
||||
1022201700000080,//47
|
||||
|
||||
#BPMCHANGE 90
|
||||
#GOGOEND
|
||||
1111222210102011,
|
||||
1011101020201011,
|
||||
12121212,
|
||||
#BPMCHANGE 180
|
||||
3,
|
||||
,
|
||||
3300,
|
||||
,
|
||||
33300000,
|
||||
,
|
||||
3,
|
||||
#BPMCHANGE 140
|
||||
#SCROLL 1.286
|
||||
100100111100,//58
|
||||
|
||||
#BPMCHANGE 180
|
||||
#SCROLL 1
|
||||
#GOGOSTART
|
||||
3002203000002000,
|
||||
3002203000002000,
|
||||
3002203000002000,
|
||||
3002203000002020,
|
||||
20//63
|
||||
|
||||
#BPMCHANGE 120
|
||||
#GOGOEND
|
||||
301112,
|
||||
100000100100100020002000,
|
||||
10000000
|
||||
#BPMCHANGE 220
|
||||
10010010,
|
||||
11010030,
|
||||
,
|
||||
,
|
||||
,
|
||||
,
|
||||
#END
|
||||
|
||||
COURSE:Normal
|
||||
LEVEL:7
|
||||
|
||||
#START
|
||||
10100011,
|
||||
10100011,
|
||||
10200011,
|
||||
10200011,
|
||||
10200011,
|
||||
10200011,
|
||||
10200011,
|
||||
10200011,
|
||||
10200011,
|
||||
10200011,
|
||||
10201101,
|
||||
10201101,
|
||||
10201101,
|
||||
10201101,
|
||||
10201201,
|
||||
10201201,
|
||||
10201201,
|
||||
10201021,
|
||||
10201021,
|
||||
10201021,
|
||||
10201021,
|
||||
,
|
||||
#BARLINEOFF
|
||||
00
|
||||
#SCROLL 1.636
|
||||
0
|
||||
#BPMCHANGE 180
|
||||
#SCROLL 1
|
||||
0,
|
||||
#BARLINEON
|
||||
3,
|
||||
,
|
||||
3,
|
||||
,
|
||||
11011011,
|
||||
01102000,
|
||||
11011011,
|
||||
01102000,
|
||||
11011011,
|
||||
01102000,
|
||||
#BPMCHANGE 90
|
||||
10201120,
|
||||
10201120,//35
|
||||
|
||||
#BPMCHANGE 180
|
||||
#GOGOSTART
|
||||
11101110,
|
||||
11101120,
|
||||
11101110,
|
||||
11102000,
|
||||
11101110,
|
||||
11101120,
|
||||
11101110,
|
||||
11102000,
|
||||
11101110,
|
||||
11101120,
|
||||
11101110,
|
||||
11102000,//47
|
||||
|
||||
#BPMCHANGE 90
|
||||
#GOGOEND
|
||||
10201120,
|
||||
10201120,
|
||||
12121210,
|
||||
#BPMCHANGE 180
|
||||
3,
|
||||
,
|
||||
3300,
|
||||
,
|
||||
33300000,
|
||||
,
|
||||
3,
|
||||
#BPMCHANGE 140
|
||||
#SCROLL 1.286
|
||||
11,//58
|
||||
|
||||
#BPMCHANGE 180
|
||||
#SCROLL 1
|
||||
#GOGOSTART
|
||||
30030000,
|
||||
30030000,
|
||||
30030000,
|
||||
30030000,
|
||||
20//63
|
||||
|
||||
#BPMCHANGE 120
|
||||
#GOGOEND
|
||||
302011,
|
||||
100200101010,
|
||||
10000000
|
||||
#BPMCHANGE 220
|
||||
10010010,
|
||||
11010030,
|
||||
,
|
||||
,
|
||||
,
|
||||
,
|
||||
#END
|
||||
|
||||
COURSE:Easy
|
||||
LEVEL:5
|
||||
|
||||
#START
|
||||
1100,
|
||||
1100,
|
||||
1200,
|
||||
1200,
|
||||
1200,
|
||||
1200,
|
||||
1200,
|
||||
1200,
|
||||
1200,
|
||||
1200,
|
||||
10201100,
|
||||
10201100,
|
||||
10201100,
|
||||
10201100,
|
||||
10201200,
|
||||
10201200,
|
||||
10201200,
|
||||
1212,
|
||||
1212,
|
||||
1212,
|
||||
10201021,
|
||||
,
|
||||
#BARLINEOFF
|
||||
00
|
||||
#SCROLL 1.636
|
||||
0
|
||||
#BPMCHANGE 180
|
||||
#SCROLL 1
|
||||
0,
|
||||
#BARLINEON
|
||||
3,
|
||||
,
|
||||
3,
|
||||
,
|
||||
11,
|
||||
1110,
|
||||
11,
|
||||
1110,
|
||||
11,
|
||||
1110,
|
||||
#BPMCHANGE 90
|
||||
1212,
|
||||
1212,//35
|
||||
|
||||
#BPMCHANGE 180
|
||||
#GOGOSTART
|
||||
1111,
|
||||
1110,
|
||||
1111,
|
||||
1120,
|
||||
1111,
|
||||
1110,
|
||||
1111,
|
||||
1120,
|
||||
1111,
|
||||
1110,
|
||||
1111,
|
||||
1120,//47
|
||||
|
||||
#BPMCHANGE 90
|
||||
#GOGOEND
|
||||
1212,
|
||||
1212,
|
||||
3330,
|
||||
#BPMCHANGE 180
|
||||
3,
|
||||
,
|
||||
3300,
|
||||
,
|
||||
33300000,
|
||||
,
|
||||
3,
|
||||
#BPMCHANGE 140
|
||||
#SCROLL 1.286
|
||||
11,//58
|
||||
|
||||
#BPMCHANGE 180
|
||||
#SCROLL 1
|
||||
#GOGOSTART
|
||||
30030000,
|
||||
30030000,
|
||||
30030000,
|
||||
30030000,
|
||||
20//63
|
||||
|
||||
#BPMCHANGE 120
|
||||
#GOGOEND
|
||||
300011,
|
||||
100111,
|
||||
10000000
|
||||
#BPMCHANGE 220
|
||||
10010010,
|
||||
11010030,
|
||||
,
|
||||
,
|
||||
,
|
||||
,
|
||||
#END
|
||||
Reference in New Issue
Block a user