tja
This commit is contained in:
626
tja/637.tja
Normal file
626
tja/637.tja
Normal file
@@ -0,0 +1,626 @@
|
||||
//TJADB Project
|
||||
TITLE:conflict
|
||||
TITLEJA:conflict
|
||||
SUBTITLE:--siromaru & Cranky feat. Pico/BOF2011
|
||||
SUBTITLEJA:siromaru + cranky
|
||||
BPM:160
|
||||
WAVE:conflict.ogg
|
||||
OFFSET:-1.725
|
||||
DEMOSTART:12.975
|
||||
|
||||
//shinuchi: 4800/3310/1810/1310
|
||||
|
||||
COURSE:Oni
|
||||
LEVEL:9
|
||||
BALLOON:9
|
||||
SCOREINIT:430,1350
|
||||
SCOREDIFF:110
|
||||
|
||||
#START
|
||||
10101012,
|
||||
10101012,
|
||||
10101012,
|
||||
1000100010201111,
|
||||
|
||||
1020100010201022,
|
||||
1020100010201022,
|
||||
1002200012002020,
|
||||
500000000000000000000000000000000008000000000000, //8
|
||||
|
||||
#GOGOSTART
|
||||
3011101210111012,
|
||||
1002201110222010,
|
||||
1011101210111012,
|
||||
1002201110222010,
|
||||
|
||||
1011101210111012,
|
||||
1002201110222010,
|
||||
1002200110022000,
|
||||
3002200210211020, //16
|
||||
|
||||
1011201210211020,
|
||||
1012201110222010,
|
||||
1011201210211020,
|
||||
1012201110222010,
|
||||
|
||||
1011201220221021,
|
||||
1011201220221021,
|
||||
1002200110022001,
|
||||
100000000000500000000000000000000008000000000000, //24
|
||||
#GOGOEND
|
||||
|
||||
3012201012201012,
|
||||
2010122022221210,
|
||||
3012201012201012,
|
||||
2010122022222010,
|
||||
|
||||
3021102021101021,
|
||||
1020211022221210,
|
||||
3021102021101210,
|
||||
300000000300000000300000000300000000101010101010, //32
|
||||
|
||||
12,
|
||||
12,
|
||||
10222022,
|
||||
1000002220202010,
|
||||
|
||||
10021012,
|
||||
20021012,
|
||||
20021012,
|
||||
2022221210000000, //40
|
||||
|
||||
10101021,
|
||||
10101022,
|
||||
10101021,
|
||||
10101022,
|
||||
|
||||
1011201212112011,
|
||||
1012201212112021,
|
||||
1011201212112011,
|
||||
1012201212112020, //48
|
||||
|
||||
3,
|
||||
#MEASURE 3/4
|
||||
000022,
|
||||
#MEASURE 4/4
|
||||
1,
|
||||
#MEASURE 3/4
|
||||
000022,
|
||||
|
||||
#MEASURE 4/4
|
||||
1022202220220222,
|
||||
#MEASURE 3/4
|
||||
202120222022,
|
||||
#MEASURE 4/4
|
||||
100000000200100000200200100000200000100100202020,
|
||||
#MEASURE 3/4
|
||||
201022201022, //56
|
||||
|
||||
#MEASURE 4/4
|
||||
1022202002202002,
|
||||
#MEASURE 3/4
|
||||
202002201010,
|
||||
#MEASURE 4/4
|
||||
1022202002202002,
|
||||
#MEASURE 3/4
|
||||
202002202022,
|
||||
|
||||
#MEASURE 4/4
|
||||
1012201012201012,
|
||||
#MEASURE 3/4
|
||||
200000100000100200200000101010100000,
|
||||
#MEASURE 4/4
|
||||
1012202012202012,
|
||||
#MEASURE 3/4
|
||||
227008, //63
|
||||
|
||||
#MEASURE 4/4
|
||||
2221001001001001,
|
||||
#MEASURE 3/4
|
||||
001001001111,
|
||||
#MEASURE 4/4
|
||||
1001001001001001,
|
||||
#MEASURE 3/4
|
||||
001001001111,
|
||||
|
||||
#MEASURE 4/4
|
||||
1001001001001001,
|
||||
#MEASURE 3/4
|
||||
001001001111,
|
||||
#MEASURE 4/4
|
||||
101010101010500008000000200200200200100000400000,
|
||||
3003003003000000, //72
|
||||
|
||||
#GOGOSTART
|
||||
3011101210111012,
|
||||
1002201110222010,
|
||||
1011101210111012,
|
||||
1002201110222010,
|
||||
|
||||
1011101210111012,
|
||||
1002201110222010,
|
||||
1002200110022000,
|
||||
3002200210211020, //80
|
||||
|
||||
1011201210211020,
|
||||
1012201110222010,
|
||||
1011201210211020,
|
||||
1012201110222010,
|
||||
|
||||
1011201220221021,
|
||||
1011201220221021,
|
||||
1002200110022001,
|
||||
1000400010004001, //88
|
||||
|
||||
1002500000000000,
|
||||
0,
|
||||
000000000000000000000000000000000008000000000000,
|
||||
#GOGOEND
|
||||
3,
|
||||
|
||||
0,
|
||||
0,
|
||||
0, //95
|
||||
#END
|
||||
|
||||
|
||||
COURSE:Hard
|
||||
LEVEL:7
|
||||
BALLOON:9,15,5,7
|
||||
SCOREINIT:490,1940
|
||||
SCOREDIFF:118
|
||||
|
||||
#START
|
||||
1111,
|
||||
1111,
|
||||
1111,
|
||||
1000100010001111,
|
||||
|
||||
1111,
|
||||
1111,
|
||||
1002200010002020,
|
||||
500000000000000000000000000000000008000000000000, //8
|
||||
|
||||
#GOGOSTART
|
||||
1011100010111000,
|
||||
1000100010222010,
|
||||
1011100010111000,
|
||||
1001100010222010,
|
||||
|
||||
1011100010111000,
|
||||
1001100010222010,
|
||||
1002200110022000,
|
||||
30300011, //16
|
||||
|
||||
1011100010111010,
|
||||
2000200010222010,
|
||||
1011100010111010,
|
||||
2002200010222010,
|
||||
|
||||
1011100020222000,
|
||||
1011100020222000,
|
||||
1002200110022001,
|
||||
100000000000500000000000000000000008000000000000, //24
|
||||
|
||||
#GOGOEND
|
||||
3001101001101001,
|
||||
1010011020002000,
|
||||
3001101001101001,
|
||||
1010011020202000,
|
||||
|
||||
3001101001101001,
|
||||
1010011020002000,
|
||||
3001101001101000,
|
||||
7008, //32
|
||||
|
||||
22,
|
||||
22,
|
||||
22,
|
||||
1000002220202000,
|
||||
|
||||
10002002,
|
||||
20002002,
|
||||
20002002,
|
||||
2022222020000000, //40
|
||||
|
||||
10201021,
|
||||
10201122,
|
||||
10201021,
|
||||
10201122,
|
||||
|
||||
1000200011102010,
|
||||
1000200011102020,
|
||||
1000200011102010,
|
||||
1233, //48
|
||||
|
||||
3,
|
||||
#MEASURE 3/4
|
||||
000022,
|
||||
#MEASURE 4/4
|
||||
2,
|
||||
#MEASURE 3/4
|
||||
000022,
|
||||
|
||||
#MEASURE 4/4
|
||||
2002202002202002,
|
||||
#MEASURE 3/4
|
||||
202002202020,
|
||||
#MEASURE 4/4
|
||||
2700,
|
||||
#MEASURE 3/4
|
||||
008, //56
|
||||
|
||||
#MEASURE 4/4
|
||||
2002202002202002,
|
||||
#MEASURE 3/4
|
||||
202002201010,
|
||||
#MEASURE 4/4
|
||||
2002202002202002,
|
||||
#MEASURE 3/4
|
||||
202002202020,
|
||||
|
||||
#MEASURE 4/4
|
||||
1002201002201002,
|
||||
#MEASURE 3/4
|
||||
201002201010,
|
||||
#MEASURE 4/4
|
||||
2002202002202002,
|
||||
#MEASURE 3/4
|
||||
227008, //64
|
||||
|
||||
#MEASURE 4/4
|
||||
0001001001001001,
|
||||
#MEASURE 3/4
|
||||
001001001111,
|
||||
#MEASURE 4/4
|
||||
1001001001001001,
|
||||
#MEASURE 3/4
|
||||
001001001111,
|
||||
|
||||
#MEASURE 4/4
|
||||
1001001001001001,
|
||||
#MEASURE 3/4
|
||||
001001001111,
|
||||
#MEASURE 4/4
|
||||
78,
|
||||
3003003003000000, //72
|
||||
|
||||
#GOGOSTART
|
||||
1011100010111000,
|
||||
2000200010222010,
|
||||
1011100010111000,
|
||||
2002200010222010,
|
||||
|
||||
1011100010111000,
|
||||
2002200010222010,
|
||||
1002200110022000,
|
||||
30300011, //80
|
||||
|
||||
1011101010111000,
|
||||
2002201010222010,
|
||||
1011101010111000,
|
||||
2002201010222010,
|
||||
|
||||
1011101020222000,
|
||||
1011101020222000,
|
||||
1002200110022001,
|
||||
1000400010004001, //88
|
||||
|
||||
1600,
|
||||
0,
|
||||
000000000000000000000000000000000008000000000000,
|
||||
#GOGOEND
|
||||
3,
|
||||
|
||||
0,
|
||||
0,
|
||||
0, //95
|
||||
#END
|
||||
|
||||
|
||||
COURSE:Normal
|
||||
LEVEL:5
|
||||
BALLOON:7,11,12,14,16
|
||||
SCOREINIT:640,3730
|
||||
SCOREDIFF:170
|
||||
|
||||
#START
|
||||
1111,
|
||||
1111,
|
||||
1111,
|
||||
10101011,
|
||||
|
||||
1111,
|
||||
1111,
|
||||
1212,
|
||||
500000000000000000000000000000000008000000000000, //8
|
||||
|
||||
#GOGOSTART
|
||||
10101011,
|
||||
20200011,
|
||||
10101110,
|
||||
2201,
|
||||
|
||||
10201110,
|
||||
2201,
|
||||
1212,
|
||||
3300, //16
|
||||
|
||||
10101011,
|
||||
20200011,
|
||||
10101110,
|
||||
2201,
|
||||
|
||||
10111020,
|
||||
20222010,
|
||||
1122,
|
||||
300000000000600000000000000000000008000000000000, //24
|
||||
#GOGOEND
|
||||
|
||||
30010010,
|
||||
01002020,
|
||||
30010010,
|
||||
01002020,
|
||||
|
||||
30010010,
|
||||
01002020,
|
||||
30010010,
|
||||
7008, //32
|
||||
|
||||
22,
|
||||
22,
|
||||
22,
|
||||
2,
|
||||
|
||||
22,
|
||||
22,
|
||||
22,
|
||||
2, //40
|
||||
|
||||
1121,
|
||||
1120,
|
||||
1121,
|
||||
1120,
|
||||
|
||||
10101110,
|
||||
10101110,
|
||||
10101110,
|
||||
500000000000000000000000000000000008000000000000, //48
|
||||
|
||||
3,
|
||||
#MEASURE 3/4
|
||||
000022,
|
||||
#MEASURE 4/4
|
||||
2,
|
||||
#MEASURE 3/4
|
||||
000022,
|
||||
|
||||
#MEASURE 4/4
|
||||
20020020,
|
||||
#MEASURE 3/4
|
||||
020022,
|
||||
#MEASURE 4/4
|
||||
2700,
|
||||
#MEASURE 3/4
|
||||
008, //56
|
||||
|
||||
#MEASURE 4/4
|
||||
20020020,
|
||||
#MEASURE 3/4
|
||||
020011,
|
||||
#MEASURE 4/4
|
||||
20020020,
|
||||
#MEASURE 3/4
|
||||
020022,
|
||||
|
||||
#MEASURE 4/4
|
||||
10010010,
|
||||
#MEASURE 3/4
|
||||
010011,
|
||||
#MEASURE 4/4
|
||||
20020020,
|
||||
#MEASURE 3/4
|
||||
020000, //64
|
||||
|
||||
#MEASURE 4/4
|
||||
0007000000000000,
|
||||
#MEASURE 3/4
|
||||
008,
|
||||
#MEASURE 4/4
|
||||
7,
|
||||
#MEASURE 3/4
|
||||
008,
|
||||
|
||||
#MEASURE 4/4
|
||||
7,
|
||||
#MEASURE 3/4
|
||||
0,
|
||||
#MEASURE 4/4
|
||||
8,
|
||||
3003003003000000, //72
|
||||
|
||||
#GOGOSTART
|
||||
10101011,
|
||||
20200011,
|
||||
10101110,
|
||||
2201,
|
||||
|
||||
10201110,
|
||||
2201,
|
||||
1212,
|
||||
30300011, //80
|
||||
|
||||
10101011,
|
||||
20200011,
|
||||
10101110,
|
||||
2201,
|
||||
|
||||
10111020,
|
||||
20222010,
|
||||
1122,
|
||||
3434, //88
|
||||
|
||||
3600,
|
||||
0,
|
||||
000000000000000000000000000000000008000000000000,
|
||||
#GOGOEND
|
||||
3,
|
||||
|
||||
0,
|
||||
0,
|
||||
0, //95
|
||||
#END
|
||||
|
||||
|
||||
COURSE:Easy
|
||||
LEVEL:4
|
||||
BALLOON:5,10,12,14
|
||||
SCOREINIT:540,5420
|
||||
SCOREDIFF:163
|
||||
|
||||
#START
|
||||
1111,
|
||||
1111,
|
||||
1111,
|
||||
1110,
|
||||
|
||||
1111,
|
||||
1111,
|
||||
1212,
|
||||
500000000000000000000000000008000000000000000000, //8
|
||||
|
||||
#GOGOSTART
|
||||
1110,
|
||||
2200,
|
||||
1110,
|
||||
2200,
|
||||
|
||||
1110,
|
||||
2200,
|
||||
1111,
|
||||
4400, //16
|
||||
|
||||
1110,
|
||||
1200,
|
||||
1110,
|
||||
1200,
|
||||
|
||||
1110,
|
||||
2220,
|
||||
1122,
|
||||
300000000000600000000000000000000008000000000000, //24
|
||||
#GOGOEND
|
||||
|
||||
3001,
|
||||
0011,
|
||||
3001,
|
||||
0011,
|
||||
|
||||
30010010,
|
||||
0011,
|
||||
30010010,
|
||||
7008, //32
|
||||
|
||||
2,
|
||||
2,
|
||||
22,
|
||||
2,
|
||||
|
||||
2,
|
||||
2,
|
||||
22,
|
||||
2, //40
|
||||
|
||||
12,
|
||||
12,
|
||||
12,
|
||||
12,
|
||||
|
||||
1110,
|
||||
1110,
|
||||
11,
|
||||
500000000000000000000000000008000000000000000000, //48
|
||||
|
||||
3,
|
||||
#MEASURE 3/4
|
||||
0,
|
||||
#MEASURE 4/4
|
||||
2,
|
||||
#MEASURE 3/4
|
||||
0,
|
||||
|
||||
#MEASURE 4/4
|
||||
2002,
|
||||
#MEASURE 3/4
|
||||
002,
|
||||
#MEASURE 4/4
|
||||
2,
|
||||
#MEASURE 3/4
|
||||
0, //56
|
||||
|
||||
#MEASURE 4/4
|
||||
20020020,
|
||||
#MEASURE 3/4
|
||||
001,
|
||||
#MEASURE 4/4
|
||||
20020020,
|
||||
#MEASURE 3/4
|
||||
001,
|
||||
|
||||
#MEASURE 4/4
|
||||
20020020,
|
||||
#MEASURE 3/4
|
||||
001,
|
||||
#MEASURE 4/4
|
||||
20020020,
|
||||
#MEASURE 3/4
|
||||
0, //64
|
||||
|
||||
#MEASURE 4/4
|
||||
0007000000000000,
|
||||
#MEASURE 3/4
|
||||
008,
|
||||
#MEASURE 4/4
|
||||
7,
|
||||
#MEASURE 3/4
|
||||
008,
|
||||
|
||||
#MEASURE 4/4
|
||||
7,
|
||||
#MEASURE 3/4
|
||||
0,
|
||||
#MEASURE 4/4
|
||||
8,
|
||||
3003003003000000, //72
|
||||
|
||||
#GOGOSTART
|
||||
1110,
|
||||
2200,
|
||||
1110,
|
||||
2200,
|
||||
|
||||
1110,
|
||||
2200,
|
||||
1111,
|
||||
4400, //80
|
||||
|
||||
1110,
|
||||
2200,
|
||||
1110,
|
||||
2200,
|
||||
|
||||
1110,
|
||||
2220,
|
||||
1122,
|
||||
1212, //88
|
||||
|
||||
3600,
|
||||
0,
|
||||
000000000000000000000000000008000000000000000000,
|
||||
#GOGOEND
|
||||
3,
|
||||
|
||||
0,
|
||||
0,
|
||||
0, //95
|
||||
#END
|
||||
Reference in New Issue
Block a user