tja
This commit is contained in:
786
tja/641.tja
Normal file
786
tja/641.tja
Normal file
@@ -0,0 +1,786 @@
|
||||
//TJADB Project
|
||||
TITLE:VICTORIA
|
||||
TITLEJA:VICTORIA
|
||||
SUBTITLE:--Cranky feat. Pico
|
||||
SUBTITLEJA:Cranky
|
||||
BPM:185
|
||||
WAVE:VICTORIA.ogg
|
||||
OFFSET:-1.398
|
||||
DEMOSTART:86.911
|
||||
|
||||
//Shinuchi: 3220/2130/1700/1120
|
||||
|
||||
COURSE:Oni
|
||||
LEVEL:10
|
||||
BALLOON:30
|
||||
SCOREINIT:420,1150
|
||||
SCOREDIFF:100
|
||||
|
||||
#START
|
||||
#BARLINEOFF
|
||||
0,
|
||||
#BARLINEON
|
||||
2022202022202010,
|
||||
2022202022202010,
|
||||
2022202022202010,
|
||||
4004004022221212,
|
||||
|
||||
1002101020100100,
|
||||
1002101020100100,
|
||||
1,
|
||||
4000000000001111, //9
|
||||
|
||||
1011002010110020,
|
||||
1012021010112110,
|
||||
1011002010110020,
|
||||
1021021011112222,
|
||||
|
||||
1011002010110020,
|
||||
1012021010112110,
|
||||
1011002010110020,
|
||||
500000000000000000000000000000000000000008000000, //17
|
||||
|
||||
1011021010110210,
|
||||
1011021020111110,
|
||||
1011021010110210,
|
||||
1012021020122210,
|
||||
|
||||
1011021010110210,
|
||||
1011021020111110,
|
||||
1011021010110210,
|
||||
1122112212121010, //25
|
||||
|
||||
0210201011201022,
|
||||
2010201222104010,
|
||||
0210201012102011,
|
||||
2010201212104010,
|
||||
|
||||
0210201011201022,
|
||||
2010201222104010,
|
||||
0210201012102011,
|
||||
2010201212104010, //33
|
||||
|
||||
0210201012201022,
|
||||
2010201222104010,
|
||||
0210201012201011,
|
||||
2210201212104010,
|
||||
|
||||
0210201012201022,
|
||||
2010201222104010,
|
||||
0210201012201011,
|
||||
2211222211112222, //41
|
||||
|
||||
#MEASURE 3/4
|
||||
7,
|
||||
0,
|
||||
008,
|
||||
2,
|
||||
|
||||
2,
|
||||
211,
|
||||
211,
|
||||
200222, //49
|
||||
|
||||
121,
|
||||
202110,
|
||||
202222,
|
||||
102110,
|
||||
|
||||
102211,
|
||||
202212,
|
||||
102211,
|
||||
202212, //57
|
||||
|
||||
122,
|
||||
102002,
|
||||
200111100100200100,
|
||||
102002,
|
||||
|
||||
200000000111100100,
|
||||
202021,
|
||||
|
||||
102102,
|
||||
202102,
|
||||
202102,
|
||||
22, //67
|
||||
|
||||
5,
|
||||
000000000000000008000000100100100100,
|
||||
#MEASURE 4/4
|
||||
5,
|
||||
000000000000000000000000000000000000000008000000,
|
||||
|
||||
200000000200000000200000200020002000200200200200,
|
||||
2,
|
||||
11, //74
|
||||
|
||||
#GOGOSTART
|
||||
1011201020121010,
|
||||
2012201020121010,
|
||||
2011201020121010,
|
||||
200000000000100000202010100000200000200200100200,
|
||||
|
||||
1011201020121010,
|
||||
2012201020121010,
|
||||
2011201020121010,
|
||||
200000000000100000202010100000200000200200100200, //82
|
||||
|
||||
1011202110122022,
|
||||
1011202110122022,
|
||||
1012102110121022,
|
||||
1012021022112110,
|
||||
|
||||
1012101120121021,
|
||||
1012101220121022,
|
||||
1012021012222210,
|
||||
1012121012212210,
|
||||
1012021012222210,
|
||||
1012121012121210, //92
|
||||
|
||||
1011021010112110,
|
||||
1021021010112210,
|
||||
1022021010122210,
|
||||
2011201020112010,
|
||||
|
||||
1112221122121212,
|
||||
1221221020122210,
|
||||
111222112212,
|
||||
500000000008000000200200500000000000000008000000, //100
|
||||
|
||||
3000001020100100,
|
||||
1012101020100100,
|
||||
3000001020100100,
|
||||
1012101020100100,
|
||||
|
||||
3000001020100100,
|
||||
1012101020100000,
|
||||
3000001020100100,
|
||||
1012101020100100, //108
|
||||
|
||||
#MEASURE 3/4
|
||||
#BPMCHANGE 134.02
|
||||
#SCROLL 1.38
|
||||
500000000000000000000000000000000008, //109
|
||||
|
||||
#MEASURE 1/4
|
||||
#BPMCHANGE 150
|
||||
#SCROLL 1.23
|
||||
000111, //110
|
||||
|
||||
#BARLINEOFF
|
||||
#MEASURE 13/16
|
||||
#BPMCHANGE 140
|
||||
#SCROLL 1.32
|
||||
100100100100100100100000001010100100100, //111
|
||||
|
||||
#MEASURE 1/16
|
||||
#BPMCHANGE 100
|
||||
#SCROLL 1.85
|
||||
1, //112
|
||||
|
||||
#BPMCHANGE 98
|
||||
#SCROLL 1.88
|
||||
1, //113
|
||||
|
||||
#MEASURE 7/16
|
||||
#BPMCHANGE 140
|
||||
#SCROLL 1.32
|
||||
101010100100100100100, //114
|
||||
|
||||
#MEASURE 1/8
|
||||
#BPMCHANGE 158
|
||||
#SCROLL 1.17
|
||||
1, //115
|
||||
|
||||
#MEASURE 4/4
|
||||
#BPMCHANGE 148
|
||||
#SCROLL 1.25
|
||||
220000000000000000000000300000000000000000000000,
|
||||
#GOGOEND
|
||||
#BARLINEON
|
||||
0,
|
||||
0,
|
||||
0, //119
|
||||
#END
|
||||
|
||||
|
||||
COURSE:Hard
|
||||
LEVEL:8
|
||||
BALLOON:5,20,6,30
|
||||
SCOREINIT:490,1810
|
||||
SCOREDIFF:118
|
||||
|
||||
#START
|
||||
#BARLINEOFF
|
||||
0,
|
||||
#BARLINEON
|
||||
2002202002202000,
|
||||
2002202002202000,
|
||||
2002202002202000,
|
||||
4004004070000080,
|
||||
|
||||
1000001020100100,
|
||||
1000001020100100,
|
||||
1,
|
||||
4, //9
|
||||
|
||||
1011002010110020,
|
||||
1011002010102000,
|
||||
1011002010110020,
|
||||
1011002010202000,
|
||||
|
||||
1011002010110020,
|
||||
1011002010102000,
|
||||
1011002010110020,
|
||||
500000000000000000000000000000000000000008000000, //17
|
||||
|
||||
1011001010110010,
|
||||
1011002010001010,
|
||||
1011001010110010,
|
||||
1011002010102220,
|
||||
|
||||
1011001010110010,
|
||||
1011002010001010,
|
||||
1011001010110010,
|
||||
500000000000000000000000000000000008000000100000, //25
|
||||
|
||||
0010200010200022,
|
||||
21210041,
|
||||
01201201,
|
||||
0010201022204010,
|
||||
|
||||
0010200010200022,
|
||||
21210041,
|
||||
01201201,
|
||||
2020201022204010, //33
|
||||
|
||||
0020200010200022,
|
||||
21210041,
|
||||
02201201,
|
||||
0010201022204010,
|
||||
|
||||
0020200010200022,
|
||||
21210041,
|
||||
02201201,
|
||||
02214040, //41
|
||||
|
||||
#MEASURE 3/4
|
||||
7,
|
||||
0,
|
||||
008,
|
||||
2,
|
||||
|
||||
2,
|
||||
211,
|
||||
211,
|
||||
200222, //49
|
||||
|
||||
122,
|
||||
122,
|
||||
102222,
|
||||
102110,
|
||||
|
||||
102211,
|
||||
102110,
|
||||
102211,
|
||||
102211, //57
|
||||
|
||||
122,
|
||||
102002,
|
||||
122,
|
||||
102002,
|
||||
|
||||
100220,
|
||||
122,
|
||||
|
||||
102102,
|
||||
202102,
|
||||
202102,
|
||||
22, //67
|
||||
|
||||
5,
|
||||
0,
|
||||
#MEASURE 4/4
|
||||
0,
|
||||
000000000000000000000000000000000000000008000000,
|
||||
|
||||
2002002070000000,
|
||||
8,
|
||||
11, //74
|
||||
|
||||
#GOGOSTART
|
||||
1011101020002000,
|
||||
1022201020002000,
|
||||
1011101020002000,
|
||||
1000002210000000,
|
||||
|
||||
1011101020002000,
|
||||
1022201020002000,
|
||||
1022201020002000,
|
||||
1000002210000000, //82
|
||||
|
||||
1011201020002000,
|
||||
1022201020002000,
|
||||
1011201020002000,
|
||||
1000002210000000,
|
||||
|
||||
1011201020002000,
|
||||
1022201020002000,
|
||||
1010200010222010,
|
||||
2010200010222000,
|
||||
1010200010222010,
|
||||
2010200010222000, //92
|
||||
|
||||
1011001010110010,
|
||||
1011001010110010,
|
||||
1011001010110010,
|
||||
2211,
|
||||
|
||||
2011001020110010,
|
||||
2011001020110010,
|
||||
2011001020110010,
|
||||
500000000008000000200200500000000000000008000000, //100
|
||||
|
||||
3000001020100100,
|
||||
1000001020100100,
|
||||
3000001020100100,
|
||||
1002101020100100,
|
||||
|
||||
3000001020100100,
|
||||
10012100,
|
||||
3000001020100100,
|
||||
1002101020100100, //108
|
||||
|
||||
#MEASURE 3/4
|
||||
#BPMCHANGE 134.02
|
||||
#SCROLL 1.38
|
||||
7, //109
|
||||
|
||||
#MEASURE 1/4
|
||||
#BPMCHANGE 150
|
||||
#SCROLL 1.23
|
||||
0, //110
|
||||
|
||||
#BARLINEOFF
|
||||
#MEASURE 13/16
|
||||
#BPMCHANGE 140
|
||||
#SCROLL 1.32
|
||||
0, //111
|
||||
|
||||
#MEASURE 1/16
|
||||
#BPMCHANGE 100
|
||||
#SCROLL 1.85
|
||||
0, //112
|
||||
|
||||
#BPMCHANGE 98
|
||||
#SCROLL 1.88
|
||||
0, //113
|
||||
|
||||
#MEASURE 7/16
|
||||
#BPMCHANGE 140
|
||||
#SCROLL 1.32
|
||||
0000008, //114
|
||||
|
||||
#MEASURE 1/8
|
||||
#BPMCHANGE 158
|
||||
#SCROLL 1.17
|
||||
0, //115
|
||||
|
||||
#MEASURE 4/4
|
||||
#BPMCHANGE 148
|
||||
#SCROLL 1.25
|
||||
220000000000000000000000300000000000000000000000,
|
||||
#GOGOEND
|
||||
#BARLINEON
|
||||
0,
|
||||
0,
|
||||
0, //119
|
||||
#END
|
||||
|
||||
|
||||
COURSE:Normal
|
||||
LEVEL:7
|
||||
BALLOON:4,16,5,24
|
||||
SCOREINIT:480,2290
|
||||
SCOREDIFF:115
|
||||
|
||||
#START
|
||||
#BARLINEOFF
|
||||
0,
|
||||
#BARLINEON
|
||||
20220220,
|
||||
20220220,
|
||||
20220220,
|
||||
4004004070000080,
|
||||
|
||||
1000001020100100,
|
||||
1000001020100100,
|
||||
1,
|
||||
4, //9
|
||||
|
||||
11021102,
|
||||
11021120,
|
||||
11021102,
|
||||
11021220,
|
||||
|
||||
11021102,
|
||||
11021120,
|
||||
11021102,
|
||||
500000000000000000000000000000000000000008000000, //17
|
||||
|
||||
11011101,
|
||||
11021000,
|
||||
11011101,
|
||||
11021120,
|
||||
|
||||
11011101,
|
||||
11021000,
|
||||
11011101,
|
||||
500000000000000000000000000000000008000000100000, //25
|
||||
|
||||
01202201,
|
||||
02210041,
|
||||
01202202,
|
||||
02210041,
|
||||
|
||||
01202201,
|
||||
02210041,
|
||||
01202202,
|
||||
02210041, //33
|
||||
|
||||
02201201,
|
||||
02210041,
|
||||
02201202,
|
||||
02210041,
|
||||
|
||||
02201201,
|
||||
02210041,
|
||||
02201201,
|
||||
02214040, //41
|
||||
|
||||
#MEASURE 3/4
|
||||
7,
|
||||
0,
|
||||
008,
|
||||
2,
|
||||
|
||||
2,
|
||||
211,
|
||||
211,
|
||||
2, //49
|
||||
|
||||
122,
|
||||
122,
|
||||
1,
|
||||
102220,
|
||||
|
||||
102210,
|
||||
102220,
|
||||
102210,
|
||||
102110, //57
|
||||
|
||||
122,
|
||||
102002,
|
||||
122,
|
||||
102002,
|
||||
|
||||
100220,
|
||||
122,
|
||||
|
||||
102102,
|
||||
202102,
|
||||
202102,
|
||||
22, //67
|
||||
|
||||
5,
|
||||
0,
|
||||
#MEASURE 4/4
|
||||
0,
|
||||
000000000000000000000000000000000000000008000000,
|
||||
|
||||
2002002070000000,
|
||||
8,
|
||||
11, //74
|
||||
|
||||
#GOGOSTART
|
||||
10112020,
|
||||
10122020,
|
||||
10112020,
|
||||
10021000,
|
||||
|
||||
10221020,
|
||||
10211020,
|
||||
10221020,
|
||||
10021000, //82
|
||||
|
||||
10112020,
|
||||
10221020,
|
||||
10112020,
|
||||
10021000,
|
||||
|
||||
10112020,
|
||||
10221020,
|
||||
11201220,
|
||||
11201220,
|
||||
11201220,
|
||||
11221020, //92
|
||||
|
||||
10021102,
|
||||
11021102,
|
||||
11021102,
|
||||
1122,
|
||||
|
||||
10012101,
|
||||
11012101,
|
||||
11012101,
|
||||
500000000008000000000000500000000000000008000000, //100
|
||||
|
||||
3000001020100100,
|
||||
1000001020100100,
|
||||
3000001020100100,
|
||||
1000001020100100,
|
||||
|
||||
3000001020100100,
|
||||
10012100,
|
||||
3000001020100100,
|
||||
1000001020100100, //108
|
||||
|
||||
#MEASURE 3/4
|
||||
#BPMCHANGE 134.02
|
||||
#SCROLL 1.38
|
||||
7, //109
|
||||
|
||||
#MEASURE 1/4
|
||||
#BPMCHANGE 150
|
||||
#SCROLL 1.23
|
||||
0, //110
|
||||
|
||||
#BARLINEOFF
|
||||
#MEASURE 13/16
|
||||
#BPMCHANGE 140
|
||||
#SCROLL 1.32
|
||||
0, //111
|
||||
|
||||
#MEASURE 1/16
|
||||
#BPMCHANGE 100
|
||||
#SCROLL 1.85
|
||||
0, //112
|
||||
|
||||
#BPMCHANGE 98
|
||||
#SCROLL 1.88
|
||||
0, //113
|
||||
|
||||
#MEASURE 7/16
|
||||
#BPMCHANGE 140
|
||||
#SCROLL 1.32
|
||||
0000008, //114
|
||||
|
||||
#MEASURE 1/8
|
||||
#BPMCHANGE 158
|
||||
#SCROLL 1.17
|
||||
0, //115
|
||||
|
||||
#MEASURE 4/4
|
||||
#BPMCHANGE 148
|
||||
#SCROLL 1.25
|
||||
220000000000000000000000300000000000000000000000,
|
||||
#GOGOEND
|
||||
#BARLINEON
|
||||
0,
|
||||
0,
|
||||
0, //119
|
||||
#END
|
||||
|
||||
|
||||
COURSE:Easy
|
||||
LEVEL:5
|
||||
BALLOON:5,14,4,20
|
||||
SCOREINIT:400,3430
|
||||
SCOREDIFF:93
|
||||
|
||||
#START
|
||||
#BARLINEOFF
|
||||
0,
|
||||
#BARLINEON
|
||||
20020020,
|
||||
20020020,
|
||||
20020020,
|
||||
7008,
|
||||
|
||||
10002100,
|
||||
10002100,
|
||||
1,
|
||||
4, //9
|
||||
|
||||
11001100,
|
||||
11002000,
|
||||
11001100,
|
||||
11002020,
|
||||
|
||||
11001100,
|
||||
11002000,
|
||||
11001100,
|
||||
500000000000000000000000000008000000000000000000, //17
|
||||
|
||||
11001100,
|
||||
11001000,
|
||||
11001100,
|
||||
11002020,
|
||||
|
||||
11001100,
|
||||
11001000,
|
||||
11001100,
|
||||
500000000000000000000000000008000000000000100000, //25
|
||||
|
||||
0210,
|
||||
10010001,
|
||||
0210,
|
||||
10010001,
|
||||
|
||||
0210,
|
||||
10010001,
|
||||
0210,
|
||||
10010001, //33
|
||||
|
||||
02201000,
|
||||
10010001,
|
||||
02201000,
|
||||
10010001,
|
||||
|
||||
02201000,
|
||||
10010001,
|
||||
02201000,
|
||||
1144, //41
|
||||
|
||||
#MEASURE 3/4
|
||||
7,
|
||||
0,
|
||||
008,
|
||||
2,
|
||||
|
||||
2,
|
||||
211,
|
||||
211,
|
||||
2, //49
|
||||
|
||||
122,
|
||||
122,
|
||||
1,
|
||||
122,
|
||||
|
||||
122,
|
||||
102,
|
||||
102,
|
||||
102, //57
|
||||
|
||||
122,
|
||||
102001,
|
||||
122,
|
||||
102001,
|
||||
|
||||
100220,
|
||||
122,
|
||||
|
||||
102200,
|
||||
202200,
|
||||
202200,
|
||||
22, //67
|
||||
|
||||
5,
|
||||
0,
|
||||
#MEASURE 4/4
|
||||
0,
|
||||
000000000000000000000000000000000008000000000000,
|
||||
|
||||
2002002070000000,
|
||||
8,
|
||||
11, //74
|
||||
|
||||
#GOGOSTART
|
||||
1122,
|
||||
1122,
|
||||
1122,
|
||||
10021000,
|
||||
|
||||
1212,
|
||||
1212,
|
||||
1212,
|
||||
10021000, //82
|
||||
|
||||
1122,
|
||||
1212,
|
||||
1122,
|
||||
10021000,
|
||||
|
||||
1122,
|
||||
1212,
|
||||
5,
|
||||
000000000000000000000000000000000008000000000000,
|
||||
1,
|
||||
1011, //92
|
||||
|
||||
10021010,
|
||||
10021010,
|
||||
10021010,
|
||||
1122,
|
||||
|
||||
10021010,
|
||||
10021010,
|
||||
10021010,
|
||||
500000000000000000000000000000000008000000000000, //100
|
||||
|
||||
30002100,
|
||||
10002100,
|
||||
30002100,
|
||||
10002100,
|
||||
|
||||
30002100,
|
||||
10002100,
|
||||
30002100,
|
||||
10002100, //108
|
||||
|
||||
#MEASURE 3/4
|
||||
#BPMCHANGE 134.02
|
||||
#SCROLL 1.38
|
||||
7, //109
|
||||
|
||||
#MEASURE 1/4
|
||||
#BPMCHANGE 150
|
||||
#SCROLL 1.23
|
||||
0, //110
|
||||
|
||||
#BARLINEOFF
|
||||
#MEASURE 13/16
|
||||
#BPMCHANGE 140
|
||||
#SCROLL 1.32
|
||||
0, //111
|
||||
|
||||
#MEASURE 1/16
|
||||
#BPMCHANGE 100
|
||||
#SCROLL 1.85
|
||||
0, //112
|
||||
|
||||
#BPMCHANGE 98
|
||||
#SCROLL 1.88
|
||||
0, //113
|
||||
|
||||
#MEASURE 7/16
|
||||
#BPMCHANGE 140
|
||||
#SCROLL 1.32
|
||||
0000008, //114
|
||||
|
||||
#MEASURE 1/8
|
||||
#BPMCHANGE 158
|
||||
#SCROLL 1.17
|
||||
0, //115
|
||||
|
||||
#MEASURE 4/4
|
||||
#BPMCHANGE 148
|
||||
#SCROLL 1.25
|
||||
220000000000000000000000300000000000000000000000,
|
||||
#GOGOEND
|
||||
#BARLINEON
|
||||
0,
|
||||
0,
|
||||
0, //119
|
||||
#END
|
||||
Reference in New Issue
Block a user