tja
This commit is contained in:
660
tja/645.tja
Normal file
660
tja/645.tja
Normal file
@@ -0,0 +1,660 @@
|
||||
//TJADB Project
|
||||
TITLE:Tsubomi Yumemiru Rapsodia ~Alma no Michibiki~
|
||||
TITLEJA:華蕾夢ミル狂詩曲~魂ノ導~
|
||||
SUBTITLE:--Sir Hirokawa feat. Maaya Uchida/THE iDOLM@STER ONE FOR ALL
|
||||
SUBTITLEJA:「アイドルマスター シンデレラガールズ」より
|
||||
BPM:184
|
||||
WAVE:Tsubomi Yumemiru Rapsodia Alma no Michibiki.ogg
|
||||
OFFSET:-4.139
|
||||
DEMOSTART:58.907
|
||||
|
||||
//shinuchi: 6200/4860/2770/1280/1140
|
||||
|
||||
COURSE:Edit
|
||||
LEVEL:9
|
||||
BALLOON:3,3
|
||||
SCOREINIT:370,1210
|
||||
SCOREDIFF:93
|
||||
|
||||
#START
|
||||
0000000000700800,
|
||||
|
||||
#GOGOSTART
|
||||
1011101110102011,
|
||||
1011101010112011,
|
||||
1010211010112010,
|
||||
1010211010404000,
|
||||
|
||||
1011101110102011,
|
||||
1011101010112011,
|
||||
1010211010112011,
|
||||
1010211010404000, //9
|
||||
#GOGOEND
|
||||
|
||||
41141141,
|
||||
14114440,
|
||||
14014041,
|
||||
0022102210222222,
|
||||
|
||||
1011201200112010,
|
||||
0011201010112010,
|
||||
0011201020102210,
|
||||
0011201022102010, //17
|
||||
|
||||
1011201200112010,
|
||||
0011201010112010,
|
||||
0011201020102210,
|
||||
0011201022112020,
|
||||
|
||||
1011201200112010,
|
||||
0011201020102210,
|
||||
0011201020102210,
|
||||
0011201011112010, //25
|
||||
|
||||
1110201022102010,
|
||||
1110201022102010,
|
||||
1022102210221222,
|
||||
1022102212221000,
|
||||
|
||||
1010001020221010,
|
||||
0011201022112000,
|
||||
1010001020221010,
|
||||
0011201022112000, //33
|
||||
|
||||
10012001,
|
||||
01012000,
|
||||
12012010,
|
||||
1221221112212211,
|
||||
|
||||
1010112000102000,
|
||||
1010221000102000,
|
||||
1021021020120120,
|
||||
1021012000000000,
|
||||
0000000000112022, //42
|
||||
|
||||
#GOGOSTART
|
||||
1011201020102210,
|
||||
0011201020112211,
|
||||
1011201020102210,
|
||||
2011201022102210,
|
||||
|
||||
1011201020102210,
|
||||
1011201020112211,
|
||||
1011201020102210,
|
||||
1222122210112000, //50
|
||||
|
||||
1011201021112010,
|
||||
2011201022102210,
|
||||
1011201021112010,
|
||||
2011201022102210,
|
||||
|
||||
1011201020102210,
|
||||
1011201020112211,
|
||||
1011201020102210,
|
||||
0022102210222220, //58
|
||||
|
||||
1011201020102210,
|
||||
0011201020112211,
|
||||
1011201020102210,
|
||||
2011201022102210,
|
||||
|
||||
1011201020102210,
|
||||
1011201020112211,
|
||||
1011201020102022,
|
||||
1222122210112020, //66
|
||||
|
||||
1011201021112010,
|
||||
14443434,
|
||||
1011201021112010,
|
||||
14443434,
|
||||
|
||||
1011201020102210,
|
||||
1011201020112211,
|
||||
1011201020102210,
|
||||
0000002220002020,
|
||||
#GOGOEND
|
||||
0,
|
||||
0000000000700800, //76
|
||||
|
||||
#GOGOSTART
|
||||
1011101110102011,
|
||||
1011101010112011,
|
||||
1010211010112010,
|
||||
1010211010404000,
|
||||
|
||||
1011101110102011,
|
||||
1011101010112011,
|
||||
1010211010112011,
|
||||
1010211010404000, //84
|
||||
#GOGOEND
|
||||
|
||||
1111102020201111,
|
||||
1020202010210210,
|
||||
1122112211221122,
|
||||
1011200010112000,
|
||||
|
||||
33430000,
|
||||
#BARLINEOFF
|
||||
0,
|
||||
0, //91
|
||||
#END
|
||||
|
||||
|
||||
COURSE:Oni
|
||||
LEVEL:8
|
||||
BALLOON:
|
||||
SCOREINIT:390,1310
|
||||
SCOREDIFF:100
|
||||
|
||||
#START
|
||||
00000140,
|
||||
|
||||
#GOGOSTART
|
||||
1010222010102000,
|
||||
1010222010102000,
|
||||
1010222010102000,
|
||||
1022201022102000,
|
||||
|
||||
1010222010102000,
|
||||
1010222010102000,
|
||||
1010222010102000,
|
||||
1022201022102020, //9
|
||||
#GOGOEND
|
||||
|
||||
10221122,
|
||||
02212110,
|
||||
33034043,
|
||||
0011102220101022,
|
||||
|
||||
1020202200102010,
|
||||
0010002020102220,
|
||||
0000202220100010,
|
||||
0000201000102022, //17
|
||||
|
||||
1020202200102010,
|
||||
0010202220102220,
|
||||
0000101022200010,
|
||||
0011202220222022,
|
||||
|
||||
1020202200102010,
|
||||
0010222010102220,
|
||||
0000101022200010,
|
||||
0010201000222020, //25
|
||||
|
||||
1010222010102020,
|
||||
1010222010102020,
|
||||
1022201020111020,
|
||||
1110201022201000,
|
||||
|
||||
10210121,
|
||||
0011101040004000,
|
||||
10210121,
|
||||
0011101040004000, //33
|
||||
|
||||
10212021,
|
||||
21012020,
|
||||
12012010,
|
||||
1021021022102222,
|
||||
|
||||
1010112000102000,
|
||||
1010221000102000,
|
||||
3003003040040040,
|
||||
3003004000000000,
|
||||
0000000000112022, //42
|
||||
|
||||
#GOGOSTART
|
||||
1010111010102010,
|
||||
0011202010102220,
|
||||
1022201022201010,
|
||||
2022102020221020,
|
||||
|
||||
1011201011102010,
|
||||
1011201000102011,
|
||||
1022201022201022,
|
||||
1022102010221000, //50
|
||||
|
||||
1011101110111011,
|
||||
2011201120112000,
|
||||
1011101110111011,
|
||||
2011201120112000,
|
||||
|
||||
1011201011102011,
|
||||
1011201120112000,
|
||||
1022201022201010,
|
||||
0020101122221111, //58
|
||||
|
||||
1010111010102010,
|
||||
0011202010102220,
|
||||
1022201022201010,
|
||||
2022102020221020,
|
||||
|
||||
1011201011102010,
|
||||
1011201000102011,
|
||||
1022201022201022,
|
||||
1022112211222022, //66
|
||||
|
||||
1011201011112010,
|
||||
2011201120112020,
|
||||
1011201011112010,
|
||||
2011201120112000,
|
||||
|
||||
1011101110102011,
|
||||
1011201120102011,
|
||||
1022201022201010,
|
||||
0000002220002020,
|
||||
#GOGOEND
|
||||
0,
|
||||
00000140, //76
|
||||
|
||||
#GOGOSTART
|
||||
1010111110102011,
|
||||
1010111110102011,
|
||||
1010111110102011,
|
||||
1022201022112000,
|
||||
|
||||
1010111110102011,
|
||||
1010111110102011,
|
||||
1010111110102011,
|
||||
1022201022112020, //84
|
||||
#GOGOEND
|
||||
|
||||
1022201022201022,
|
||||
200000500000000008000000100000001000000010000000,
|
||||
1111222211112222,
|
||||
1011200010112000,
|
||||
|
||||
1022201000000000,
|
||||
#BARLINEOFF
|
||||
0,
|
||||
0, //91
|
||||
#END
|
||||
|
||||
|
||||
COURSE:Hard
|
||||
LEVEL:5
|
||||
BALLOON:12
|
||||
SCOREINIT:640,3150
|
||||
SCOREDIFF:175
|
||||
|
||||
#START
|
||||
00000140,
|
||||
|
||||
#GOGOSTART
|
||||
30201120,
|
||||
10201120,
|
||||
10201120,
|
||||
10211120,
|
||||
|
||||
30201120,
|
||||
10201120,
|
||||
10201120,
|
||||
10211120, //9
|
||||
#GOGOEND
|
||||
|
||||
10012001,
|
||||
01012000,
|
||||
33034006,
|
||||
000000000000000000000000000000000008000000000000,
|
||||
|
||||
1000101100000000,
|
||||
01012020,
|
||||
00102205,
|
||||
000000000000000000000000000008000000000000000000, //17
|
||||
|
||||
1000101100000000,
|
||||
01012020,
|
||||
00102205,
|
||||
000000000000000000000008000000000000000000000000,
|
||||
|
||||
1000101100000000,
|
||||
01102020,
|
||||
00102205,
|
||||
000000000000000008000000000000000000000000000000, //25
|
||||
|
||||
10201120,
|
||||
10201120,
|
||||
11212021,
|
||||
20212020,
|
||||
|
||||
10210121,
|
||||
01014040,
|
||||
10210121,
|
||||
01014040, //33
|
||||
|
||||
10012001,
|
||||
01012000,
|
||||
12012010,
|
||||
3003003030030030,
|
||||
|
||||
600000000000000000000008000000000000300000000000,
|
||||
3033,
|
||||
6,
|
||||
000000000000000000000008000000000000000000000000,
|
||||
0, //42
|
||||
|
||||
#GOGOSTART
|
||||
11110001,
|
||||
01201120,
|
||||
10210250,
|
||||
000000000000000000000000000000000008000000000000,
|
||||
|
||||
11110000,
|
||||
11110120,
|
||||
500000000000000000000000000008000000100000000000,
|
||||
500000000000000000000000000000000008000000000000, //50
|
||||
|
||||
10110010,
|
||||
10110000,
|
||||
20220020,
|
||||
20220020,
|
||||
|
||||
500000000000000000000000000000000008000000000000,
|
||||
1122,
|
||||
30034046,
|
||||
000000000000000000000000000000000008000000000000, //58
|
||||
|
||||
11110001,
|
||||
01201120,
|
||||
10210250,
|
||||
000000000000000000000000000000000008000000000000,
|
||||
|
||||
11110000,
|
||||
11110120,
|
||||
500000000000000000000000000008000000100000000000,
|
||||
500000000000000000000000000008000000200000200000, //66
|
||||
|
||||
10210250,
|
||||
000000000000000000000008000000000000200000200000,
|
||||
10210250,
|
||||
000000000000000000000008000000000000100000000000,
|
||||
|
||||
500000000000000000000000000000000008000000000000,
|
||||
1122,
|
||||
30004043,
|
||||
00022022,
|
||||
#GOGOEND
|
||||
0,
|
||||
00000140, //76
|
||||
|
||||
#GOGOSTART
|
||||
30201120,
|
||||
10201120,
|
||||
10201120,
|
||||
10211120,
|
||||
|
||||
30201120,
|
||||
10201120,
|
||||
10201120,
|
||||
10211120, //84
|
||||
#GOGOEND
|
||||
|
||||
11122211,
|
||||
17000008,
|
||||
500000000000000000000000000000000000000008000000,
|
||||
1122,
|
||||
|
||||
33330000,
|
||||
#BARLINEOFF
|
||||
0,
|
||||
0, //91
|
||||
#END
|
||||
|
||||
|
||||
COURSE:Normal
|
||||
LEVEL:4
|
||||
BALLOON:8
|
||||
SCOREINIT:820,5870
|
||||
SCOREDIFF:280
|
||||
|
||||
#START
|
||||
0,
|
||||
|
||||
#GOGOSTART
|
||||
31,
|
||||
11,
|
||||
11,
|
||||
1122,
|
||||
|
||||
31,
|
||||
11,
|
||||
11,
|
||||
1122, //9
|
||||
#GOGOEND
|
||||
|
||||
10002001,
|
||||
01002000,
|
||||
30030006,
|
||||
000000000000000000000000000000000008000000000000,
|
||||
|
||||
1100,
|
||||
0222,
|
||||
00101005,
|
||||
000000000000000000000008000000000000000000000000, //17
|
||||
|
||||
1100,
|
||||
0222,
|
||||
00101005,
|
||||
000000000000000000000008000000000000000000000000,
|
||||
|
||||
1100,
|
||||
0222,
|
||||
00101005,
|
||||
000000000000000008000000000000000000000000000000, //25
|
||||
|
||||
11,
|
||||
1110,
|
||||
11,
|
||||
1110,
|
||||
|
||||
3,
|
||||
0044,
|
||||
3,
|
||||
0044, //33
|
||||
|
||||
12,
|
||||
1120,
|
||||
12,
|
||||
9009,
|
||||
|
||||
8,
|
||||
3033,
|
||||
6,
|
||||
000000000000000000000008000000000000000000000000,
|
||||
0, //42
|
||||
|
||||
#GOGOSTART
|
||||
10100001,
|
||||
0111,
|
||||
30030060,
|
||||
000000000000000000000000000000000008000000000000,
|
||||
|
||||
1100,
|
||||
10110010,
|
||||
600000000000000000000000000008000000300000000000,
|
||||
600000000000000000000000000000000008000000000000, //50
|
||||
|
||||
10110010,
|
||||
10110000,
|
||||
10110010,
|
||||
10110010,
|
||||
|
||||
500000000000000000000000000000000008000000000000,
|
||||
1111,
|
||||
30003006,
|
||||
000000000000000000000000000000000008000000000000, //58
|
||||
|
||||
10100001,
|
||||
0111,
|
||||
30030060,
|
||||
000000000000000000000000000000000008000000000000,
|
||||
|
||||
1100,
|
||||
10110010,
|
||||
600000000000000000000000000008000000300000000000,
|
||||
600000000000000000000000000008000000000000000000, //66
|
||||
|
||||
10010010,
|
||||
0,
|
||||
10010010,
|
||||
0001,
|
||||
|
||||
500000000000000000000000000000000008000000000000,
|
||||
1111,
|
||||
30003003,
|
||||
0,
|
||||
#GOGOEND
|
||||
0,
|
||||
0, //76
|
||||
|
||||
#GOGOSTART
|
||||
31,
|
||||
11,
|
||||
11,
|
||||
1122,
|
||||
|
||||
31,
|
||||
11,
|
||||
11,
|
||||
1122, //84
|
||||
#GOGOEND
|
||||
|
||||
10010010,
|
||||
01000000,
|
||||
500000000000000000000000000000000000000008000000,
|
||||
11,
|
||||
|
||||
30330000,
|
||||
#BARLINEOFF
|
||||
0,
|
||||
0, //91
|
||||
#END
|
||||
|
||||
|
||||
COURSE:Easy
|
||||
LEVEL:2
|
||||
BALLOON:6,4,4
|
||||
SCOREINIT:610,9800
|
||||
SCOREDIFF:298
|
||||
|
||||
#START
|
||||
0,
|
||||
|
||||
#GOGOSTART
|
||||
3,
|
||||
3,
|
||||
3,
|
||||
33,
|
||||
|
||||
3,
|
||||
3,
|
||||
3,
|
||||
33, //9
|
||||
#GOGOEND
|
||||
|
||||
0,
|
||||
0,
|
||||
6,
|
||||
000000000000000000000000000008000000000000000000,
|
||||
|
||||
1,
|
||||
0,
|
||||
10001005,
|
||||
000000000000000000000000000008000000000000000000, //17
|
||||
|
||||
1,
|
||||
0,
|
||||
10001005,
|
||||
000000000000000000000008000000000000000000000000,
|
||||
|
||||
1,
|
||||
0,
|
||||
10001005,
|
||||
000000000000000008000000000000000000000000000000, //25
|
||||
|
||||
1,
|
||||
1,
|
||||
11,
|
||||
1110,
|
||||
|
||||
3,
|
||||
0044,
|
||||
3,
|
||||
0044, //33
|
||||
|
||||
1,
|
||||
11,
|
||||
1110,
|
||||
9009,
|
||||
|
||||
8,
|
||||
33,
|
||||
6,
|
||||
000000000000000000000008000000000000000000000000,
|
||||
0, //42
|
||||
|
||||
#GOGOSTART
|
||||
1,
|
||||
11,
|
||||
30030060,
|
||||
000000000000000000000000000008000000000000000000,
|
||||
|
||||
1,
|
||||
10010000,
|
||||
3003,
|
||||
7008, //50
|
||||
|
||||
11,
|
||||
10010000,
|
||||
11,
|
||||
10010000,
|
||||
|
||||
500000000000000000000000000008000000000000000000,
|
||||
11,
|
||||
6,
|
||||
000000000000000000000000000008000000000000000000, //58
|
||||
|
||||
1,
|
||||
11,
|
||||
30030060,
|
||||
000000000000000000000000000008000000000000000000,
|
||||
|
||||
1,
|
||||
10010000,
|
||||
3003,
|
||||
7008, //66
|
||||
|
||||
30030030,
|
||||
0,
|
||||
30030030,
|
||||
0,
|
||||
|
||||
11,
|
||||
1110,
|
||||
30003003,
|
||||
0,
|
||||
#GOGOEND
|
||||
0,
|
||||
0, //76
|
||||
|
||||
#GOGOSTART
|
||||
3,
|
||||
3,
|
||||
3,
|
||||
33,
|
||||
|
||||
3,
|
||||
3,
|
||||
3,
|
||||
33, //84
|
||||
#GOGOEND
|
||||
|
||||
30030030,
|
||||
06000000,
|
||||
000000000000000000000000000008000000000000000000,
|
||||
33,
|
||||
|
||||
30030000,
|
||||
#BARLINEOFF
|
||||
0,
|
||||
0, //91
|
||||
#END
|
||||
Reference in New Issue
Block a user