tja
This commit is contained in:
461
tja/649.tja
Normal file
461
tja/649.tja
Normal file
@@ -0,0 +1,461 @@
|
||||
//TJADB Project
|
||||
TITLE:DOQⅬCANⅮ♡
|
||||
TITLEJA:毒LOCANdy♡
|
||||
SUBTITLE:--t+pazolite
|
||||
SUBTITLEJA:t+pazolite
|
||||
BPM:165
|
||||
WAVE:DOQLOCANDy.ogg
|
||||
OFFSET:-1.701
|
||||
DEMOSTART:4.602
|
||||
|
||||
COURSE:Oni
|
||||
LEVEL:9
|
||||
BALLOON:15
|
||||
SCOREINIT:410
|
||||
SCOREDIFF:100
|
||||
|
||||
|
||||
#START
|
||||
|
||||
|
||||
2002002010020020,
|
||||
2020200202112010,
|
||||
|
||||
#GOGOSTART
|
||||
1021201010210120,
|
||||
100000200100000100200000100000101010200000100000,
|
||||
1021201010210120,
|
||||
100100200200100222100000,
|
||||
1021201010210120,
|
||||
100000200100000100200000100000101010200000100000,
|
||||
1021201010210120,
|
||||
100100200200100222100000,
|
||||
500000000000000000000000000000000000000008000000,
|
||||
2020202020002011,
|
||||
|
||||
#GOGOEND
|
||||
1000001210200100,
|
||||
1000001120202020,
|
||||
1000001210200100,
|
||||
1000001120202020,
|
||||
100200100200100202100200,
|
||||
100200100200100202100200,
|
||||
100200100200100202100200,
|
||||
100000000100000000100000500000000008000000100100,
|
||||
1020201212102020,
|
||||
1020201122102020,
|
||||
1020201212102020,
|
||||
1020201122102122,
|
||||
100000200000200000100200100000100020100000200000,
|
||||
100000200000200000100100200000100020100000200000,
|
||||
100000200000200000100200100000100020100000200000,
|
||||
500000000000000000000000000000000008000000000000,
|
||||
3002002002022020,
|
||||
2002002002022020,
|
||||
3022002022002020,
|
||||
2022002022002020,
|
||||
1221001221001020,
|
||||
1221001221001020,
|
||||
1221001221001020,
|
||||
7008,
|
||||
|
||||
#GOGOSTART
|
||||
1021012010201220,
|
||||
1021012010202011,
|
||||
1021012010211020,
|
||||
1021012010202020,
|
||||
1021012010212010,
|
||||
1221001002201020,
|
||||
1021012010212010,
|
||||
100100100200100100100000500000000008000000100100,
|
||||
1021012010201220,
|
||||
1021012010202011,
|
||||
1021012010211020,
|
||||
1021012010202020,
|
||||
1021012010212010,
|
||||
100200200100000000100000500000000008000000200200,
|
||||
1021012010202020,
|
||||
1121212211212122,
|
||||
500000000000000000000000000000000000000008000000,
|
||||
|
||||
#GOGOEND
|
||||
30020122,
|
||||
1002002110121000,
|
||||
0120001121211020,
|
||||
500008000000200000200000500000000000000008000000,
|
||||
1001002012121212,
|
||||
1210202022121000,
|
||||
2121212121212121,
|
||||
500000000008000000100000500000000008000000200000,
|
||||
500000000000000000000000000000000000000008000000,
|
||||
1202102020102020,
|
||||
|
||||
#GOGOSTART
|
||||
3002002000202020,
|
||||
3002002030000020,
|
||||
3002002000200020,
|
||||
3020002030002222,
|
||||
1021012010211020,
|
||||
1221001002201020,
|
||||
1021012010202020,
|
||||
100000000100000000100000500000000008000000100100,
|
||||
1021012010201220,
|
||||
1021012010202011,
|
||||
1021012010211020,
|
||||
1021212210202020,
|
||||
1021012010212010,
|
||||
100200200100000000100000500000000008000000200200,
|
||||
1021012010212010,
|
||||
1121221211212212,
|
||||
1021201010210120,
|
||||
100000200100000100200000100000101010200000100000,
|
||||
1021201010210120,
|
||||
100100200200100222100200,
|
||||
1111121211111212,
|
||||
1122121211221212,
|
||||
1111121211111212,
|
||||
1122121211221212,
|
||||
500000000000000000000000000000000000000008000000,
|
||||
22222020,
|
||||
|
||||
#GOGOEND
|
||||
3,
|
||||
|
||||
|
||||
#END
|
||||
|
||||
|
||||
COURSE:Hard
|
||||
LEVEL:6
|
||||
BALLOON:20,9,38
|
||||
SCOREINIT:550
|
||||
SCOREDIFF:150
|
||||
|
||||
|
||||
#START
|
||||
|
||||
|
||||
2002002010000000,
|
||||
2002002010000000,
|
||||
|
||||
#GOGOSTART
|
||||
1011101010000000,
|
||||
1001001020002000,
|
||||
1011101010000000,
|
||||
11221020,
|
||||
1011101010000000,
|
||||
1001001020002000,
|
||||
1011101010000000,
|
||||
11221020,
|
||||
7,
|
||||
08,//12
|
||||
|
||||
#GOGOEND
|
||||
12,
|
||||
0000001110102000,
|
||||
12,
|
||||
0000001110102000,
|
||||
1012,
|
||||
1012,
|
||||
1012,
|
||||
100000000100000000100000500000000008000000000000,
|
||||
1000002220000000,
|
||||
1000001110102000,
|
||||
1000002220000000,
|
||||
1000001110102000,
|
||||
1012,
|
||||
1012,
|
||||
1012,
|
||||
500000000000000000000000000000000008000000000000,
|
||||
3,
|
||||
2002002000000000,
|
||||
3,
|
||||
2002002000000000,
|
||||
1001001000002020,
|
||||
1001001000002020,
|
||||
1001001000002020,
|
||||
7008,//36
|
||||
|
||||
#GOGOSTART
|
||||
1001001000202020,
|
||||
1001001010000011,
|
||||
1001001000200020,
|
||||
1010001010000011,
|
||||
1001001000202020,
|
||||
1001001001002020,
|
||||
1001001000202020,
|
||||
100000000100000000100000500000000008000000000000,
|
||||
1001001000202020,
|
||||
1001001010000011,
|
||||
1001001000200020,
|
||||
1010001010000011,
|
||||
1001001000202020,
|
||||
100000000100000000100000500000000008000000100100,
|
||||
1001001000202020,
|
||||
1212,
|
||||
500000000000000000000000000000000008000000000000,//53
|
||||
|
||||
#GOGOEND
|
||||
3,
|
||||
1222,
|
||||
1,
|
||||
1222,
|
||||
10000222,
|
||||
20000222,
|
||||
20000222,
|
||||
100000000100000000100000500000000000000008000000,
|
||||
500000000000000000000000000000000000000008000000,
|
||||
,//63
|
||||
|
||||
#GOGOSTART
|
||||
3,
|
||||
33,
|
||||
3,
|
||||
33,
|
||||
1001001000202020,
|
||||
1001001001002020,
|
||||
1001001000202020,
|
||||
100000000100000000100000500000000008000000000000,
|
||||
1001001000202020,
|
||||
1001001010000011,
|
||||
1001001000202020,
|
||||
1022202220000011,
|
||||
1001001000202020,
|
||||
100000000100000000100000500000000008000000100100,
|
||||
1001001000202020,
|
||||
1212,
|
||||
7,
|
||||
,
|
||||
,
|
||||
8,
|
||||
1022201010000000,
|
||||
1001001020002000,
|
||||
1022201010000000,
|
||||
11221020,
|
||||
5,
|
||||
000000000000000000000000000000000008000000000000,//89
|
||||
|
||||
#GOGOEND
|
||||
3,
|
||||
,
|
||||
#END
|
||||
|
||||
COURSE:Normal
|
||||
LEVEL:4
|
||||
BALLOON:15,30
|
||||
|
||||
#START
|
||||
,
|
||||
,//2
|
||||
|
||||
#GOGOSTART
|
||||
11,
|
||||
1011,
|
||||
11,
|
||||
1022,
|
||||
11,
|
||||
1011,
|
||||
11,
|
||||
1022,
|
||||
7,
|
||||
08,//12
|
||||
|
||||
#GOGOEND
|
||||
12,
|
||||
00010020,
|
||||
12,
|
||||
00010020,
|
||||
11,
|
||||
22,
|
||||
11,
|
||||
2220,
|
||||
12,
|
||||
00011020,
|
||||
12,
|
||||
00011020,
|
||||
11,
|
||||
22,
|
||||
11,
|
||||
500000000000000000000000000000000008000000000000,
|
||||
3,
|
||||
,
|
||||
3,
|
||||
,
|
||||
10010000,
|
||||
10010000,
|
||||
1001001000000000,
|
||||
3,//36
|
||||
|
||||
#GOGOSTART
|
||||
1001001000000000,
|
||||
10000220,
|
||||
1001001000000000,
|
||||
10000220,
|
||||
1001001000000000,
|
||||
2002002000000000,
|
||||
1001001000000000,
|
||||
200000000200000000200000500000000008000000000000,
|
||||
1001001000000000,
|
||||
10000220,
|
||||
1001001000000000,
|
||||
10000220,
|
||||
1001001000000000,
|
||||
200000000200000000200000500000000008000000000000,
|
||||
1001001000000000,
|
||||
2211,
|
||||
500000000000000000000000000000000008000000000000,//53
|
||||
|
||||
#GOGOEND
|
||||
3,
|
||||
1222,
|
||||
1,
|
||||
1222,
|
||||
10000220,
|
||||
20000220,
|
||||
20000220,
|
||||
11,
|
||||
500000000000000000000000000000000000000008000000,
|
||||
,//63
|
||||
|
||||
#GOGOSTART
|
||||
3,
|
||||
33,
|
||||
3,
|
||||
33,
|
||||
2002002000000000,
|
||||
1001001000000000,
|
||||
2002002000000000,
|
||||
100000000100000000100000500000000008000000000000,
|
||||
1001001000002000,
|
||||
10000220,
|
||||
1001001000002000,
|
||||
500000000000000000000008000000200000200000000000,
|
||||
1001001000002000,
|
||||
100000000100000000100000500000000008000000000000,
|
||||
1001001000002000,
|
||||
1122,
|
||||
7,
|
||||
,
|
||||
,
|
||||
8,
|
||||
1212,
|
||||
1211,
|
||||
1212,
|
||||
1211,
|
||||
5,
|
||||
000000000000000000000000000000000008000000000000,//89
|
||||
|
||||
#GOGOEND
|
||||
3,
|
||||
,
|
||||
#END
|
||||
|
||||
COURSE:Easy
|
||||
LEVEL:3
|
||||
BALLOON:12,25
|
||||
|
||||
#START
|
||||
,
|
||||
,//2
|
||||
|
||||
#GOGOSTART
|
||||
11,
|
||||
1,
|
||||
11,
|
||||
1,
|
||||
22,
|
||||
2,
|
||||
22,
|
||||
2,
|
||||
7,
|
||||
08,//12
|
||||
|
||||
#GOGOEND
|
||||
1,
|
||||
2,
|
||||
1,
|
||||
2,
|
||||
11,
|
||||
11,
|
||||
11,
|
||||
2,
|
||||
12,
|
||||
02,
|
||||
12,
|
||||
02,
|
||||
11,
|
||||
22,
|
||||
11,
|
||||
500000000000000000000000000008000000000000000000,
|
||||
3,
|
||||
,
|
||||
3,
|
||||
,
|
||||
3,
|
||||
3,
|
||||
3,
|
||||
3,//36
|
||||
|
||||
#GOGOSTART
|
||||
11,
|
||||
1110,
|
||||
11,
|
||||
1110,
|
||||
12,
|
||||
12,
|
||||
12,
|
||||
1110,
|
||||
11,
|
||||
2220,
|
||||
11,
|
||||
2220,
|
||||
11,
|
||||
22,
|
||||
11,
|
||||
1111,
|
||||
500000000000000000000000000008000000000000000000,//53
|
||||
|
||||
#GOGOEND
|
||||
3,
|
||||
22,
|
||||
2,
|
||||
22,
|
||||
2,
|
||||
2,
|
||||
2,
|
||||
11,
|
||||
500000000000000000000000000000000000000008000000,
|
||||
,//63
|
||||
|
||||
#GOGOSTART
|
||||
3,
|
||||
33,
|
||||
3,
|
||||
33,
|
||||
11,
|
||||
1110,
|
||||
11,
|
||||
2220,
|
||||
11,
|
||||
1110,
|
||||
11,
|
||||
22,
|
||||
11,
|
||||
2220,
|
||||
11,
|
||||
1111,
|
||||
7,
|
||||
,
|
||||
,
|
||||
8,
|
||||
11,
|
||||
1011,
|
||||
11,
|
||||
1111,
|
||||
5,
|
||||
000000000000000000000000000008000000000000000000,//89
|
||||
|
||||
#GOGOEND
|
||||
3,
|
||||
,
|
||||
#END
|
||||
Reference in New Issue
Block a user