This commit is contained in:
2026-03-04 23:59:27 +09:00
parent 6e0312f5b4
commit 4b4e2b8c98
1128 changed files with 668765 additions and 0 deletions

574
tja/663.tja Normal file
View File

@@ -0,0 +1,574 @@
//TJADB Project
TITLE:Fuun! Bachio Sensei -Old Audio/Chart-
TITLEJA:風雲!バチお先生
SUBTITLE:--Go Shiina
SUBTITLEJA:旧音源・譜面
BPM:130
WAVE:Fuun! Bachio Sensei -Old Audio Chart-.ogg
OFFSET:-5.097
DEMOSTART:75.254
//AC3-9 Chart. Levels/Scores are based on AC9.
//Old Track is only used in AC3. All other versions uses the New (current) track.
//No Go-Go Time (All charts) before AC7.
COURSE:Oni
LEVEL:8
BALLOON:26
SCOREINIT:700
SCOREDIFF:150
//9* in AC6, 10* in AC3-5 and CS1
//Balloon is 32-hit before AC7
#START
0,
0,
0202,
0202,
0202,
#BPMCHANGE 131.730
#SCROLL 0.98
100100100100600000000080, //6
#BPMCHANGE 129.433
#SCROLL 1
0202,
#BPMCHANGE 130.001
#SCROLL 0.99
0000200000002200,
0202,
#BPMCHANGE 130.599
0000200002102000, //10
#BPMCHANGE 128.957
#SCROLL 1
1001001000102001,
#BPMCHANGE 130.260
#SCROLL 0.99
1001001000102001,
#BPMCHANGE 129.524
#SCROLL 1
1001001000102001,
#BPMCHANGE 130.504
#SCROLL 0.99
1001001002102020, //14
#BPMCHANGE 130.012
1010200001102000,
1010200001102000,
#BPMCHANGE 130.201
1110200001102000,
#BPMCHANGE 129.999
#SCROLL 1
1110200001102000, //18
#BPMCHANGE 130.001
#SCROLL 0.99
1110202001102022,
#BPMCHANGE 130.656
1110202001102022,
1110202011112022,
#BPMCHANGE 129.493
#SCROLL 1
1110202011112022, //22
1110201111102000,
#BPMCHANGE 129.97
1110201111102000,
1110201111102000,
1110201110105080, //26
1111211111112111,
1111211111112111,
2222111122221111,
2211221122112211, //30
#BPMCHANGE 130
1010200101102000,
1010200101101000,
1010200101102000,
1010200101102022, //34
1010200101102000,
1010200101102000,
1111200101102000,
#BPMCHANGE 129.001
1010200011111111, //38
#BPMCHANGE 130
#GOGOSTART
1010200101102000,
1010200101102000,
1010200101102000,
1010200101101030, //42
1010200101102000,
1010200101102000,
1010200101102000,
#BPMCHANGE 130.501
#SCROLL 0.99
1021021011102022, //46
#BPMCHANGE 129.95
#SCROLL 1
1010200101102000,
1010200111102000,
1010200101102000,
1010200111102222, //50
#BPMCHANGE 130.268
#SCROLL 0.99
1010200101102000,
11213030,
#BPMCHANGE 129.96
#SCROLL 1
21212121,
2101210121012101, //54
#GOGOEND
7,
000000000000000008000000,
#BPMCHANGE 130.161
#SCROLL 0.99
1001001001001000,
#BPMCHANGE 130
#SCROLL 1
1111010110103000, //58
1000200100102001,
1000200100102000,
#BPMCHANGE 130.5
#SCROLL 0.99
1000200100102001,
1000200111102222, //62
#BPMCHANGE 130
#SCROLL 1
1000200100102001,
1000200111102000,
1010211111101110,
3,
0, //67
#END
COURSE:Hard
LEVEL:6
BALLOON:23
SCOREINIT:480
SCOREDIFF:120
//7* before AC9
//Balloon is 32-hit before AC7
#START
0,
0,
0202,
0202,
0202,
#BPMCHANGE 131.730
#SCROLL 0.98
100100100100600000000080, //6
#BPMCHANGE 129.433
#SCROLL 1
0202,
#BPMCHANGE 130.001
#SCROLL 0.99
0000200000002200,
0202,
#BPMCHANGE 130.599
0000200002102000, //10
#BPMCHANGE 128.957
#SCROLL 1
1001001000102001,
#BPMCHANGE 130.260
#SCROLL 0.99
1001001000102001,
#BPMCHANGE 129.524
#SCROLL 1
1001001000102001,
#BPMCHANGE 130.504
#SCROLL 0.99
1001001002102020, //14
#BPMCHANGE 130.012
1010200001102000,
1010200001102000,
#BPMCHANGE 130.201
1110200001102000,
#BPMCHANGE 129.999
#SCROLL 1
1110200001102000, //18
#BPMCHANGE 130.001
#SCROLL 0.99
1110202001102022,
#BPMCHANGE 130.656
1110202001102022,
1110202011112022,
#BPMCHANGE 129.493
#SCROLL 1
1110202011112022, //22
1110201111102000,
#BPMCHANGE 129.97
1110201111102000,
1110201111102000,
1110201110105080, //26
1111211111112111,
1111211111112111,
2222111122221111,
2211221122112211, //30
#BPMCHANGE 130
1010200101102000,
1010200101101000,
1010200101102000,
1010200101102022, //34
1010200101102000,
1010200101102000,
1111200101102000,
#BPMCHANGE 129.001
1010200011111111, //38
#BPMCHANGE 130
#GOGOSTART
1010200101102000,
1010200101102000,
1010200101102000,
1010200101101030, //42
1010200101102000,
1010200101102000,
1010200101102000,
#BPMCHANGE 130.501
#SCROLL 0.99
1021021011102022, //46
#BPMCHANGE 129.95
#SCROLL 1
1010200101102000,
1010200111102000,
1010200101102000,
1010200111102222, //50
#BPMCHANGE 130.268
#SCROLL 0.99
1010200101102000,
11213030,
#BPMCHANGE 129.96
#SCROLL 1
21212121,
2101210121012101, //54
#GOGOEND
7,
000000000000000008000000,
#BPMCHANGE 130.161
#SCROLL 0.99
1001001001001000,
#BPMCHANGE 130
#SCROLL 1
1111010110103000, //58
1000200100102001,
1000200100102000,
#BPMCHANGE 130.5
#SCROLL 0.99
1000200100102001,
1000200111102222, //62
#BPMCHANGE 130
#SCROLL 1
1000200100102001,
1000200111102000,
1010211111101110,
3,
0, //67
#END
COURSE:Normal
LEVEL:5
BALLOON:20
SCOREINIT:800
SCOREDIFF:180
//4* in AC5, 3* in AC4 and CS1. Not available in AC3.
#START
0,
0,
0202,
0202,
0202,
#BPMCHANGE 131.730
#SCROLL 0.98
100100100100600000000080, //6
#BPMCHANGE 129.433
#SCROLL 1
0202,
#BPMCHANGE 130.001
#SCROLL 0.99
0202,
0202,
#BPMCHANGE 130.599
0202, //10
#BPMCHANGE 128.957
#SCROLL 1
10010020,
#BPMCHANGE 130.260
#SCROLL 0.99
10010020,
#BPMCHANGE 129.524
#SCROLL 1
10010020,
#BPMCHANGE 130.504
#SCROLL 0.99
10010020, //14
#BPMCHANGE 130.012
11200000,
11200000,
#BPMCHANGE 130.201
11200000,
#BPMCHANGE 129.999
#SCROLL 1
11200000, //18
#BPMCHANGE 130.001
#SCROLL 0.99
11200020,
#BPMCHANGE 130.656
11200020,
11200020,
#BPMCHANGE 129.493
#SCROLL 1
11201010, //22
10200120,
#BPMCHANGE 129.97
10200120,
10200120,
10200120, //26
10200120,
10200120,
1111,
21212121, //30
#BPMCHANGE 130
11200120,
11200110,
11200120,
11202020, //34
11200120,
11200120,
11200120,
#BPMCHANGE 129.001
11201111, //38
#BPMCHANGE 130
#GOGOSTART
10200120,
10200120,
10200120,
10200122, //42
10200120,
10200120,
10200120,
#BPMCHANGE 130.501
#SCROLL 0.99
1001001000002000, //46
#BPMCHANGE 129.95
#SCROLL 1
11200120,
11200120,
11200120,
11200120, //50
#BPMCHANGE 130.268
#SCROLL 0.99
11200120,
11200140,
#BPMCHANGE 129.96
#SCROLL 1
1111,
21212121, //54
#GOGOEND
7,
000000000000000008000000,
#BPMCHANGE 130.161
#SCROLL 0.99
1001001001001000,
#BPMCHANGE 130
#SCROLL 1
3, //58
1202,
11200020,
#BPMCHANGE 130.5
#SCROLL 0.99
1202,
11200022, //62
#BPMCHANGE 130
#SCROLL 1
1202,
11200020,
10200021,
3,
0, //67
#END
COURSE:Easy
LEVEL:5
BALLOON:15
SCOREINIT:700
SCOREDIFF:160
//Not available in AC3-6 and CS1.
#START
0,
0,
0202,
0202,
0202,
#BPMCHANGE 131.730
#SCROLL 0.98
0, //6
#BPMCHANGE 129.433
#SCROLL 1
0202,
#BPMCHANGE 130.001
#SCROLL 0.99
0202,
0202,
#BPMCHANGE 130.599
0202, //10
#BPMCHANGE 128.957
#SCROLL 1
10010020,
#BPMCHANGE 130.260
#SCROLL 0.99
10010020,
#BPMCHANGE 129.524
#SCROLL 1
10010020,
#BPMCHANGE 130.504
#SCROLL 0.99
10010020, //14
#BPMCHANGE 130.012
11100000,
1200,
#BPMCHANGE 130.201
11100000,
#BPMCHANGE 129.999
#SCROLL 1
1200, //18
#BPMCHANGE 130.001
#SCROLL 0.99
11100020,
#BPMCHANGE 130.656
1200,
11100020,
#BPMCHANGE 129.493
#SCROLL 1
1211, //22
10200100,
#BPMCHANGE 129.97
10200100,
10200100,
10200220, //26
10200100,
10200100,
1111,
500000000000000000000000000000000008000000000000, //30
#BPMCHANGE 130
11100100,
11100100,
11100100,
1022, //34
11100100,
11100100,
11100100,
#BPMCHANGE 129.001
10001011, //38
#BPMCHANGE 130
#GOGOSTART
10200100,
10200110,
10200100,
1210, //42
10200100,
10200110,
10200100,
#BPMCHANGE 130.501
#SCROLL 0.99
3, //46
#BPMCHANGE 129.95
#SCROLL 1
10200100,
11100100,
10200100,
11100100, //50
#BPMCHANGE 130.268
#SCROLL 0.99
10200100,
11100100,
#BPMCHANGE 129.96
#SCROLL 1
1111,
3, //54
#GOGOEND
7,
000000000000000008000000,
#BPMCHANGE 130.161
#SCROLL 0.99
1001001001001000,
#BPMCHANGE 130
#SCROLL 1
3, //58
1202,
1202,
#BPMCHANGE 130.5
#SCROLL 0.99
1202,
1202, //62
#BPMCHANGE 130
#SCROLL 1
1202,
1202,
1202,
3,
0, //67
#END