tja
This commit is contained in:
342
tja/678.tja
Normal file
342
tja/678.tja
Normal file
@@ -0,0 +1,342 @@
|
||||
//TJADB Project
|
||||
TITLE:Koi
|
||||
TITLEJA:恋
|
||||
SUBTITLE:--Nigeru wa Hajidaga Yakunitatsu
|
||||
SUBTITLEJA:ドラマ「逃げるは恥だが役に立つ」より
|
||||
BPM:158
|
||||
WAVE:Koi.ogg
|
||||
OFFSET:-6.236
|
||||
DEMOSTART:48.758
|
||||
|
||||
//shinuchi: 9740/6830/4450/2760
|
||||
|
||||
COURSE:Oni
|
||||
LEVEL:6
|
||||
BALLOON:9
|
||||
SCOREINIT:800,3010
|
||||
SCOREDIFF:235
|
||||
|
||||
#START
|
||||
1212,
|
||||
1000200010222010,
|
||||
30303223,
|
||||
0030003000202222,
|
||||
|
||||
10000100,
|
||||
10010020,
|
||||
10000100,
|
||||
10010020, //8
|
||||
|
||||
10000100,
|
||||
10010020,
|
||||
1112,
|
||||
10000400,
|
||||
|
||||
10200100,
|
||||
10010020,
|
||||
10200100,
|
||||
10010020, //16
|
||||
|
||||
10200100,
|
||||
10010020,
|
||||
1112,
|
||||
1102011000400000,
|
||||
|
||||
01112021,
|
||||
0020201110002000,
|
||||
01112021,
|
||||
0020201110002000,
|
||||
|
||||
02221020,
|
||||
1000100010002011,
|
||||
10303047,
|
||||
00000800, //28
|
||||
|
||||
#GOGOSTART
|
||||
1110111010002010,
|
||||
1110200010202000,
|
||||
1110111010002010,
|
||||
2220200010201020,
|
||||
|
||||
1110111010002010,
|
||||
1110200010202050,
|
||||
000000000000000000000000000008000000200000300000,
|
||||
0030003000202222, //36
|
||||
|
||||
1110111010002010,
|
||||
1110200010202000,
|
||||
1110111010002010,
|
||||
2220200010201020,
|
||||
|
||||
1110111010002010,
|
||||
1110200010202030,
|
||||
0020201010202210,
|
||||
0020201010202210, //44
|
||||
|
||||
02211022,
|
||||
3000000000002011,
|
||||
12211022,
|
||||
30000021,
|
||||
0022222210000000, //49
|
||||
#GOGOEND
|
||||
|
||||
3000222220220220,
|
||||
3000222220220220,
|
||||
3000222210220220,
|
||||
3000300300000000,
|
||||
|
||||
3000222220220220,
|
||||
3000222220220220,
|
||||
3000222211111111,
|
||||
1000300300000000,
|
||||
0, //58
|
||||
#END
|
||||
|
||||
|
||||
COURSE:Hard
|
||||
LEVEL:3
|
||||
BALLOON:6,6
|
||||
SCOREINIT:900,5230
|
||||
SCOREDIFF:313
|
||||
|
||||
#START
|
||||
1212,
|
||||
1212,
|
||||
30303004,
|
||||
04040000,
|
||||
|
||||
1202,
|
||||
1202,
|
||||
1210,
|
||||
1210, //8
|
||||
|
||||
1202,
|
||||
1202,
|
||||
1112,
|
||||
10000400,
|
||||
|
||||
1202,
|
||||
1202,
|
||||
1210,
|
||||
1210, //16
|
||||
|
||||
1202,
|
||||
1202,
|
||||
1112,
|
||||
10000400,
|
||||
|
||||
10012000,
|
||||
10012020,
|
||||
10012000,
|
||||
10012020,
|
||||
|
||||
1112,
|
||||
1112,
|
||||
30303047,
|
||||
000000000000000000000000080000000000000000000000, //28
|
||||
|
||||
#GOGOSTART
|
||||
11102011,
|
||||
1220,
|
||||
11102011,
|
||||
1212,
|
||||
|
||||
11102011,
|
||||
10202005,
|
||||
000000000000000000000008000000000000000000700000,
|
||||
000000000000000000000000080000000000000000000000, //36
|
||||
|
||||
11102011,
|
||||
1220,
|
||||
11102011,
|
||||
1212,
|
||||
|
||||
11102011,
|
||||
10202003,
|
||||
02202203,
|
||||
02202203, //44
|
||||
|
||||
02202020,
|
||||
30000003,
|
||||
02202020,
|
||||
30000003,
|
||||
02202000, //49
|
||||
#GOGOEND
|
||||
|
||||
3,
|
||||
3,
|
||||
33,
|
||||
3000300300000000,
|
||||
|
||||
1122,
|
||||
1122,
|
||||
3230,
|
||||
3000300300000000,
|
||||
0, //58
|
||||
#END
|
||||
|
||||
|
||||
COURSE:Normal
|
||||
LEVEL:3
|
||||
BALLOON:5,5
|
||||
SCOREINIT:1080,8520
|
||||
SCOREDIFF:533
|
||||
|
||||
#START
|
||||
0202,
|
||||
0202,
|
||||
30303003,
|
||||
03030000,
|
||||
|
||||
1,
|
||||
1,
|
||||
11,
|
||||
1, //8
|
||||
|
||||
11,
|
||||
1,
|
||||
1110,
|
||||
10000400,
|
||||
|
||||
1,
|
||||
1,
|
||||
11,
|
||||
1, //16
|
||||
|
||||
11,
|
||||
1,
|
||||
1110,
|
||||
10000400,
|
||||
|
||||
12,
|
||||
12,
|
||||
12,
|
||||
12,
|
||||
|
||||
1110,
|
||||
2220,
|
||||
30303007,
|
||||
000000000000000000000000080000000000000000000000, //28
|
||||
|
||||
#GOGOSTART
|
||||
1110,
|
||||
2220,
|
||||
1110,
|
||||
2222,
|
||||
|
||||
1110,
|
||||
20202005,
|
||||
000000000000000000000008000000000000000000700000,
|
||||
000000000000000000000000080000000000000000000000, //36
|
||||
|
||||
1110,
|
||||
2220,
|
||||
1110,
|
||||
2222,
|
||||
|
||||
1110,
|
||||
20202003,
|
||||
00202003,
|
||||
00202005, //44
|
||||
|
||||
000000000000000000000008000000000000000000000000,
|
||||
30000005,
|
||||
000000000000000000000008000000000000000000000000,
|
||||
30000005,
|
||||
000000000000000000000008000000000000000000000000, //49
|
||||
#GOGOEND
|
||||
|
||||
3,
|
||||
3,
|
||||
33,
|
||||
3000300300000000,
|
||||
|
||||
1120,
|
||||
1120,
|
||||
3030,
|
||||
3000300300000000,
|
||||
0, //58
|
||||
#END
|
||||
|
||||
|
||||
COURSE:Easy
|
||||
LEVEL:2
|
||||
BALLOON:6
|
||||
SCOREINIT:980,11860
|
||||
SCOREDIFF:700
|
||||
|
||||
#START
|
||||
11,
|
||||
11,
|
||||
30303006,
|
||||
000000000000000000000008000000000000000000000000,
|
||||
|
||||
1,
|
||||
1,
|
||||
1,
|
||||
1, //8
|
||||
|
||||
1,
|
||||
1,
|
||||
11,
|
||||
1,
|
||||
|
||||
1,
|
||||
2,
|
||||
1,
|
||||
1, //16
|
||||
|
||||
1,
|
||||
2,
|
||||
11,
|
||||
1,
|
||||
|
||||
11,
|
||||
02,
|
||||
11,
|
||||
02,
|
||||
|
||||
11,
|
||||
1110,
|
||||
30303006,
|
||||
000000000000000000000008000000000000000000000000, //28
|
||||
|
||||
#GOGOSTART
|
||||
1110,
|
||||
11,
|
||||
1110,
|
||||
11,
|
||||
|
||||
1110,
|
||||
10001007,
|
||||
0008,
|
||||
0, //36
|
||||
|
||||
1110,
|
||||
22,
|
||||
1110,
|
||||
22,
|
||||
|
||||
1110,
|
||||
20002003,
|
||||
00000003,
|
||||
00000005, //44
|
||||
|
||||
000000000000000000000008000000000000000000000000,
|
||||
30000005,
|
||||
000000000000000000000008000000000000000000000000,
|
||||
30000005,
|
||||
000000000000000000000008000000000000000000000000, //49
|
||||
#GOGOEND
|
||||
|
||||
3,
|
||||
3,
|
||||
33,
|
||||
3,
|
||||
|
||||
1100,
|
||||
1100,
|
||||
33,
|
||||
600000000000000000000008000000000000000000000000,
|
||||
0, //58
|
||||
#END
|
||||
Reference in New Issue
Block a user