This commit is contained in:
2026-03-04 23:59:27 +09:00
parent 6e0312f5b4
commit 4b4e2b8c98
1128 changed files with 668765 additions and 0 deletions

550
tja/680.tja Normal file
View File

@@ -0,0 +1,550 @@
//TJADB Project
TITLE:Ganso! Genius Cirno-chan☆
TITLEJA:元祖!天才チルノちゃん☆
SUBTITLE:--Yuuya Kobayashi (IOSYS) feat. miko/Touhou Project
SUBTITLEJA:東方Projectアレンジ コバヤシユウヤ(IOSYS) feat.miko
BPM:185
WAVE:Ganso! Genius Cirno-chan.ogg
OFFSET:-1.400
DEMOSTART:6.589
COURSE:Oni
LEVEL:9
SCOREINIT:330
SCOREDIFF:80
#START
#GOGOSTART
1111101111201112,
2011222022112010,//2
#GOGOEND
1111101111201112,
200000100100200200200000100010001000200020002000,//4
#GOGOSTART
1111101111201112,
2011222022112010,//6
#GOGOEND
1111101111201112,
2011222010202020,//8
#GOGOSTART
1000100211102020,
1000200211202000,
1000100211102010,
000000200000200000102020200000100200200000200200,
1000100211102020,
1000200211202010,
0021101021101011,
2121222122202010,//16
#GOGOEND
01201021,
0010001000211010,
01201021,
0010001000211010,
01201021,
0010001000211050,
000000000000000000000000000000000008000000200200,
0022002022221010,
01201021,
0010001112111010,
0011200010002010,
0010001111112010,
0011200010002010,
0010001112111050,
000000000000000000000000000000000008000000200200,
000000200200000000200200100010001000200020002000,//32
#GOGOSTART
1111101111201112,
2011222022112010,//34
#GOGOEND
1111101111201112,
200000100100200200200000100010001000200020002000,//36
#GOGOSTART
1111101111201112,
2011222022112010,//38
#GOGOEND
1111101111201112,
200000100100200200200000100010001000200020002000,
100100200201,
001200200200,
102101202002,
1010101010111111,
0300,//45
#GOGOSTART
1011102010112020,
1020111110201020,
1011102010112020,
1020221220201222,
1020100212102011,
1020100211202210,
1211201012112010,
101010200000200000100100200000200000200100100100,
1020112010201120,
1020112210201120,
1020112010201120,
1020112210201120,
1020100212102011,
1020100211202210,
1211201012112010,
101010200000200000100100200200100100200000100000,//61
#GOGOEND
4242,
0040404040112000,//63
#GOGOSTART
1011202010122020,
1020111120201020,
1011202010122020,
1020111110201122,
1020100212102011,
1020100211202210,
1211201012112010,
101010200000200000100100200000200000200100100100,
1020112010201120,
1020112210201120,
1020112010201120,
1020112210201120,
1020101212102011,
1020101211202210,
1211201012112010,
101010200000200000100100200100200100200000100000,//79
#GOGOEND
4242,
0040404040112000,//81
#GOGOSTART
1000100211102020,
1000200211202000,
1000100211102010,
000000200000200000102020200000100200200000200200,
1000100211102020,
1000200211202010,
0021101021101011,
2121222122202010,//89
#GOGOEND
4000000000222040,
0000002220400000,
6,
,
000000000000000000000000000000000000000000000008,
#END
COURSE:Hard
LEVEL:6
BALLOON:13
SCOREINIT:390
SCOREDIFF:100
#START
#GOGOSTART
30030030,
03004040,//2
#GOGOEND
10010010,
01002020,//4
#GOGOSTART
30030030,
03004040,//6
#GOGOEND
10010010,
01002020,//8
#GOGOSTART
1000100110101010,
2221,
1000100110101010,
02202000,
1000100110101010,
20202011,
01112201,
01112201,//16
#GOGOEND
01201021,
0020002000222010,
01201021,
0020002000222010,
01201021,
0020002000222050,
000000000000000000000000000000000008000000000000,
00000001,
01201021,
0020002010222010,
01201021,
0020002010222010,
01201021,
0020002010222050,
000000000000000000000000000000000008000000000000,
,//32
#GOGOSTART
30030030,
03004040,//34
#GOGOEND
10010010,
01002020,//36
#GOGOSTART
30030030,
03004040,//38
#GOGOEND
10010010,
01002020,
100000200201,
0222,
100220,
7008,
0300,//45
#GOGOSTART
10211120,
1020111010102000,
10211120,
1020111010102000,
1010200011102000,
1010200011102000,
1011200010112000,
1011201020001111,
1020102010201110,
1020111010201000,
1020102010201110,
1020111010201000,
1010200011102000,
1010200011102000,
1011200010112000,
1011201020001000,//61
#GOGOEND
3232,
03333000,//63
#GOGOSTART
10211120,
1020111020201000,
10211120,
1020111020201000,
1010200011102000,
1010200011102000,
1011200010112000,
1011201020001111,
1020102010201110,
1020111010201000,
1020102010201110,
1020111010201000,
1010200011102000,
1010200011102000,
1011200010112000,
1011201020001000,//79
#GOGOEND
3232,
03333000,//81
#GOGOSTART
1000100110101010,
2221,
1000100110101010,
02202000,
1000100110101010,
20202011,
01112201,
01112201,//89
#GOGOEND
3000000000111030,
0000001120300000,
6,
,
000000000000000000000000000000000000000000000008,
,
,
#END
COURSE:Normal
LEVEL:6
BALLOON:9
#START
#GOGOSTART
30030030,
03004040,//2
#GOGOEND
10010010,
01002020,//4
#GOGOSTART
30030030,
03004040,//6
#GOGOEND
10010010,
01002020,//8
#GOGOSTART
10101011,
2220,
10101011,
0220,
10101011,
20202001,
01102001,
01102001,//16
#GOGOEND
01101002,
02220221,
01101002,
02220221,
01101002,
02220225,
0008,
00000001,
01101002,
02220221,
01101002,
02220221,
01101002,
02220225,
000000000000000000000000000000000008000000000000,
,//32
#GOGOSTART
30030030,
03004040,//34
#GOGOEND
10010010,
01002020,//36
#GOGOSTART
30030030,
03004040,//38
#GOGOEND
10010010,
01002020,
12,
12,
12,
7008,
0300,//45
#GOGOSTART
10111020,
10201120,
10111020,
10201120,
10201120,
10201120,
1414,
10114000,
10101011,
10201120,
10101011,
10201120,
10201120,
10201120,
11401140,
10114000,//61
#GOGOEND
3232,
03333000,//63
#GOGOSTART
10211020,
10112010,
10211020,
10112010,
10201120,
10201120,
1414,
10114000,
10201011,
10201120,
10201011,
10201120,
10201120,
10201120,
11401140,
10114000,//79
#GOGOEND
3232,
03333000,//81
#GOGOSTART
10101011,
2220,
10101011,
0220,
10101011,
20202001,
01102001,
01102000,//89
#GOGOEND
30000003,
04,
6,
,
000000000000000000000000000000000000000000000008,
,
,
#END
COURSE:Easy
LEVEL:4
BALLOON:10,7,10
#START
#GOGOSTART
30030030,
03003030,//2
#GOGOEND
,
,//4
#GOGOSTART
30030030,
03003030,//6
#GOGOEND
,
,//8
#GOGOSTART
1110,
2220,
1110,
2220,
1110,
20202007,
,
80000001,//16
#GOGOEND
00101002,
00020001,
00101002,
00020001,
00101002,
00020005,
000000000000000000000000000000000008000000000000,
00000001,
00101002,
00020001,
00101002,
00020001,
00101002,
00020005,
000000000000000000000000000000000008000000000000,
,//32
#GOGOSTART
30030030,
03004040,//34
#GOGOEND
,
,//36
#GOGOSTART
30030030,
03004040,//38
#GOGOEND
,
,
12,
12,
12,
7008,
,//45
#GOGOSTART
11,
1,
11,
1,
12,
12,
1414,
14,
1110,
1110,
1110,
1110,
12,
12,
1414,
14,//61
#GOGOEND
33,
03333000,//63
#GOGOSTART
11,
1,
11,
1,
12,
12,
1414,
14,
1110,
1120,
1110,
1120,
12,
12,
1414,
14,//79
#GOGOEND
33,
03333000,//81
#GOGOSTART
1110,
2220,
1110,
2220,
1110,
20202007,
,
8,//89
#GOGOEND
30000003,
04,
6,
,
000000000000000000000000000000000000000000000008,
,
,
#END