tja
This commit is contained in:
612
tja/686.tja
Normal file
612
tja/686.tja
Normal file
@@ -0,0 +1,612 @@
|
||||
//TJADB Project
|
||||
TITLE:R.I.
|
||||
TITLEJA:R.I.
|
||||
SUBTITLE:--Yamato × Daisuke Kurosawa
|
||||
SUBTITLEJA:大和 × 黒沢ダイスケ
|
||||
BPM:190
|
||||
WAVE:R.I..ogg
|
||||
OFFSET:-2.144
|
||||
DEMOSTART:72.222
|
||||
|
||||
//Shinuchi: 4370/3070/1570/1040
|
||||
|
||||
COURSE:Oni
|
||||
LEVEL:10
|
||||
BALLOON:6,6
|
||||
SCOREINIT:380,1080
|
||||
SCOREDIFF:90
|
||||
|
||||
//AC15 Score: 340/95
|
||||
|
||||
#START
|
||||
3,
|
||||
0020300011221210,
|
||||
3000202000222010,
|
||||
0011201010200020,
|
||||
|
||||
30120110,
|
||||
12010708,
|
||||
1211101211101211,
|
||||
1012111011221212, //8
|
||||
|
||||
#GOGOSTART
|
||||
100000202020100000000200100000100000000000100000,
|
||||
0011201022112020,
|
||||
100000202020100000000200100000100000200000100000,
|
||||
0011201010201222,
|
||||
|
||||
100000202020100000000200100000100000000000100000,
|
||||
0011222022211020,
|
||||
1011221000122210,
|
||||
0020221020222210, //16
|
||||
|
||||
100000202020100000000200100000100000000000100000,
|
||||
0011201022112210,
|
||||
1022201020121020,
|
||||
0012221012201220,
|
||||
|
||||
100000202020100000000200100000100000000000100000,
|
||||
0011222022211020,
|
||||
1011221000122210,
|
||||
0020221020222210, //24
|
||||
#GOGOEND
|
||||
|
||||
1111100011111010,
|
||||
0010201111102010,
|
||||
0011101010111110,
|
||||
0011101022112210,
|
||||
|
||||
1111100011111010,
|
||||
0010201111102010,
|
||||
0011101010110110,
|
||||
0011101012121020, //32
|
||||
|
||||
1111200011112010,
|
||||
2010201111102010,
|
||||
2011201020111110,
|
||||
2011201022112210,
|
||||
|
||||
1111200011112010,
|
||||
2010201011112010,
|
||||
2011201020110110,
|
||||
500000000000000000000000000000000000000008000000, //40
|
||||
|
||||
1020201020201022,
|
||||
#MEASURE 3/4
|
||||
200100200200102020,
|
||||
#MEASURE 4/4
|
||||
1020201020221120,
|
||||
02210220,
|
||||
|
||||
1110201210102010,
|
||||
0020001212112000,
|
||||
1110201210102010,
|
||||
0020201120111120, //48
|
||||
|
||||
1020201020221020,
|
||||
#MEASURE 3/4
|
||||
201020201222,
|
||||
#MEASURE 4/4
|
||||
1020221022221022,
|
||||
2010001022100000,
|
||||
|
||||
1,
|
||||
22,
|
||||
1120201120201120,
|
||||
23030300, //56
|
||||
|
||||
#GOGOSTART
|
||||
1110201211202010,
|
||||
0011202012112020,
|
||||
1021002011102010,
|
||||
0010201112102012,
|
||||
|
||||
1110201000200010,
|
||||
0022201022102010,
|
||||
1110201000200010,
|
||||
000000200000000000500000000000000000000008000000, //64
|
||||
|
||||
1110201211202010,
|
||||
0011202012112020,
|
||||
1021002011102010,
|
||||
0010201112102012,
|
||||
|
||||
1110201000200010,
|
||||
0022201022102010,
|
||||
1011201121201211,
|
||||
2012102012112210,
|
||||
#GOGOEND
|
||||
|
||||
1110201000200010,
|
||||
02210201,
|
||||
1121201000400030,
|
||||
04030443, //76
|
||||
|
||||
#GOGOSTART
|
||||
1022102210122210,
|
||||
1212121012121020,
|
||||
100020002000200100000100200200100000200000100000,
|
||||
2110211021102211,
|
||||
|
||||
1022102210102010,
|
||||
0011222022211020,
|
||||
1011221000122210,
|
||||
0020221020101010, //84
|
||||
|
||||
1122112211221122,
|
||||
1122112211221122,
|
||||
1111201121112120,
|
||||
1111212120112111,
|
||||
|
||||
200100200100200000000000300000202020100000300000,
|
||||
202020100000300000200000300000200200100100200200,
|
||||
1011221000122210,
|
||||
0022221022221210, //92
|
||||
#GOGOEND
|
||||
|
||||
3,
|
||||
0020300011221210,
|
||||
3000202000222010,
|
||||
0011201010200020,
|
||||
|
||||
30120110,
|
||||
12020708,
|
||||
112211221122,
|
||||
121200200200, //100
|
||||
|
||||
300020200300000300000600,
|
||||
000000000000000000000000000008000000000200200100,
|
||||
1,
|
||||
0,
|
||||
0, //105
|
||||
#END
|
||||
|
||||
|
||||
COURSE:Hard
|
||||
LEVEL:8
|
||||
BALLOON:5,5
|
||||
SCOREINIT:430,1700
|
||||
SCOREDIFF:110
|
||||
|
||||
#START
|
||||
3,
|
||||
0020300011102220,
|
||||
30000002,
|
||||
0011101010200020,
|
||||
|
||||
30120110,
|
||||
12020200,
|
||||
30030030,
|
||||
000000600000000000000000000000000008000000000000, //8
|
||||
|
||||
#GOGOSTART
|
||||
10101101,
|
||||
0010201022202010,
|
||||
10101121,
|
||||
01211202,
|
||||
|
||||
10101101,
|
||||
0010222022222010,
|
||||
11220122,
|
||||
0010202000200011, //16
|
||||
|
||||
10101101,
|
||||
0010201022202010,
|
||||
11220121,
|
||||
0010222010200020,
|
||||
|
||||
10101101,
|
||||
0010222022222010,
|
||||
5,
|
||||
000000000000000000000000000000000008000000000000, //24
|
||||
#GOGOEND
|
||||
|
||||
1110100011101010,
|
||||
0010001011101010,
|
||||
0011101010001010,
|
||||
0011101022202000,
|
||||
|
||||
1110100011101010,
|
||||
0010001011101010,
|
||||
0011101010001010,
|
||||
0011101022202000, //32
|
||||
|
||||
1110200011102010,
|
||||
0010001011102010,
|
||||
0011101010002010,
|
||||
0011101020112000,
|
||||
|
||||
1110200011102010,
|
||||
0010001011102010,
|
||||
0011101010002010,
|
||||
0011101020112000, //40
|
||||
|
||||
10202021,
|
||||
#MEASURE 3/4
|
||||
122,
|
||||
#MEASURE 4/4
|
||||
10202022,
|
||||
01170080,
|
||||
|
||||
1110200010102010,
|
||||
02020120,
|
||||
1110200010102050,
|
||||
000000000000000000000000000000000008000000000000, //48
|
||||
|
||||
10202021,
|
||||
#MEASURE 3/4
|
||||
122,
|
||||
#MEASURE 4/4
|
||||
10202022,
|
||||
02070080,
|
||||
|
||||
1,
|
||||
22,
|
||||
1110301110300020,
|
||||
03030300, //56
|
||||
|
||||
#GOGOSTART
|
||||
1000201011102010,
|
||||
01211021,
|
||||
1002001011102010,
|
||||
01201120,
|
||||
|
||||
1110201000200010,
|
||||
02211221,
|
||||
1110201000200010,
|
||||
000000200000000000500000000000000008000000000000, //64
|
||||
|
||||
1000200011102010,
|
||||
01211021,
|
||||
1002001011102010,
|
||||
01201120,
|
||||
|
||||
1110201000200010,
|
||||
02211221,
|
||||
5,
|
||||
000000000000000000000000000000000008000000000000,
|
||||
#GOGOEND
|
||||
|
||||
1110201000200010,
|
||||
02010200,
|
||||
1110201000400030,
|
||||
04030443, //76
|
||||
|
||||
#GOGOSTART
|
||||
10101101,
|
||||
0010201022202010,
|
||||
1000100011102010,
|
||||
01211202,
|
||||
|
||||
10101101,
|
||||
0010222022222010,
|
||||
11220122,
|
||||
0010201010101111, //84
|
||||
|
||||
1020102010111020,
|
||||
1020102010222020,
|
||||
1020102010111020,
|
||||
1020102010222020,
|
||||
|
||||
32323233,
|
||||
32323233,
|
||||
11220122,
|
||||
0010202022222011, //92
|
||||
#GOGOEND
|
||||
|
||||
1,
|
||||
0020300011102220,
|
||||
30000002,
|
||||
0011101010200020,
|
||||
|
||||
30120110,
|
||||
12020200,
|
||||
5,
|
||||
000000000000000000000000000000000008000000000000, //100
|
||||
|
||||
30230303,
|
||||
0000000000000221,
|
||||
1,
|
||||
0,
|
||||
0, //105
|
||||
#END
|
||||
|
||||
|
||||
COURSE:Normal
|
||||
LEVEL:7
|
||||
BALLOON:4,4,6
|
||||
SCOREINIT:680,3520
|
||||
SCOREDIFF:185
|
||||
|
||||
#START
|
||||
3,
|
||||
0,
|
||||
3,
|
||||
0,
|
||||
|
||||
30020010,
|
||||
02020200,
|
||||
30030030,
|
||||
000000600000000000000000000008000000000000000000, //8
|
||||
|
||||
#GOGOSTART
|
||||
10101101,
|
||||
01002000,
|
||||
10101105,
|
||||
000000000008000000000000100000200000000000200000,
|
||||
|
||||
10101101,
|
||||
01002000,
|
||||
5,
|
||||
000000000000000000000000000000000008000000000000, //16
|
||||
|
||||
10101101,
|
||||
01002000,
|
||||
10101105,
|
||||
000000000008000000000000100000200000000000200000,
|
||||
|
||||
10101101,
|
||||
01002000,
|
||||
5,
|
||||
000000000000000000000000000000000008000000000000, //24
|
||||
#GOGOEND
|
||||
|
||||
10001001,
|
||||
01001001,
|
||||
01001001,
|
||||
01002000,
|
||||
|
||||
10001001,
|
||||
01001001,
|
||||
01001001,
|
||||
01002000, //32
|
||||
|
||||
10201001,
|
||||
01002001,
|
||||
01002001,
|
||||
01002000,
|
||||
|
||||
10201001,
|
||||
01002001,
|
||||
01002001,
|
||||
01002000, //40
|
||||
|
||||
1222,
|
||||
#MEASURE 3/4
|
||||
122,
|
||||
#MEASURE 4/4
|
||||
10002002,
|
||||
00070080,
|
||||
|
||||
10201102,
|
||||
02020010,
|
||||
10201105,
|
||||
000000000000000000000000000000000008000000000000, //48
|
||||
|
||||
1222,
|
||||
#MEASURE 3/4
|
||||
122,
|
||||
#MEASURE 4/4
|
||||
10002002,
|
||||
02070080,
|
||||
|
||||
1,
|
||||
0,
|
||||
03303306,
|
||||
000000000000000000000000000008000000000000000000, //56
|
||||
|
||||
#GOGOSTART
|
||||
10111021,
|
||||
01201020,
|
||||
10111021,
|
||||
01201000,
|
||||
|
||||
10110202,
|
||||
02202000,
|
||||
10110202,
|
||||
02020000, //64
|
||||
|
||||
10201021,
|
||||
01201020,
|
||||
10111021,
|
||||
01201000,
|
||||
|
||||
10110202,
|
||||
02202000,
|
||||
10110207,
|
||||
08,
|
||||
#GOGOEND
|
||||
|
||||
10110201,
|
||||
01010100,
|
||||
30110403,
|
||||
03030300, //76
|
||||
|
||||
#GOGOSTART
|
||||
10101101,
|
||||
01002000,
|
||||
10101105,
|
||||
000000000008000000000000100000200000000000200000,
|
||||
|
||||
10101101,
|
||||
01002000,
|
||||
5,
|
||||
000000000000000000000000000000000008000000000000, //84
|
||||
|
||||
10101011,
|
||||
10101011,
|
||||
10101012,
|
||||
02101202,
|
||||
|
||||
30303033,
|
||||
30303033,
|
||||
6,
|
||||
000000000000000000000000000000000008000000000000, //92
|
||||
#GOGOEND
|
||||
|
||||
3,
|
||||
0,
|
||||
3,
|
||||
0,
|
||||
|
||||
30020010,
|
||||
02020200,
|
||||
5,
|
||||
000000000000000000000000000000000008000000000000, //100
|
||||
|
||||
30210306,
|
||||
000000000000000000000000000000000000000000000008,
|
||||
0,
|
||||
0,
|
||||
0, //105
|
||||
#END
|
||||
|
||||
|
||||
COURSE:Easy
|
||||
LEVEL:5
|
||||
BALLOON:5
|
||||
SCOREINIT:510,5080
|
||||
SCOREDIFF:155
|
||||
|
||||
#START
|
||||
3,
|
||||
0,
|
||||
3,
|
||||
0,
|
||||
|
||||
30020010,
|
||||
02020200,
|
||||
30030030,
|
||||
000000600000000000000000000008000000000000000000, //8
|
||||
|
||||
#GOGOSTART
|
||||
10101001,
|
||||
01000000,
|
||||
10101002,
|
||||
0,
|
||||
|
||||
10101001,
|
||||
01000000,
|
||||
5,
|
||||
000000000000000000000000000008000000000000000000,
|
||||
|
||||
10101001,
|
||||
01000000,
|
||||
10101002,
|
||||
0,
|
||||
|
||||
10101001,
|
||||
01000000,
|
||||
5,
|
||||
000000000000000000000000000008000000000000000000, //24
|
||||
#GOGOEND
|
||||
|
||||
11,
|
||||
11,
|
||||
1110,
|
||||
2,
|
||||
|
||||
11,
|
||||
11,
|
||||
1110,
|
||||
2, //32
|
||||
|
||||
11,
|
||||
1110,
|
||||
1110,
|
||||
2,
|
||||
|
||||
11,
|
||||
1110,
|
||||
1110,
|
||||
2, //40
|
||||
|
||||
10000002,
|
||||
#MEASURE 3/4
|
||||
002,
|
||||
#MEASURE 4/4
|
||||
20002002,
|
||||
00020000,
|
||||
|
||||
10001002,
|
||||
0,
|
||||
10001002,
|
||||
0, //48
|
||||
|
||||
10000002,
|
||||
#MEASURE 3/4
|
||||
002,
|
||||
#MEASURE 4/4
|
||||
20002002,
|
||||
00020000,
|
||||
|
||||
1,
|
||||
0,
|
||||
06000000,
|
||||
000000000000000000000000000008000000000000000000, //56
|
||||
|
||||
#GOGOSTART
|
||||
10001002,
|
||||
02002000,
|
||||
10101002,
|
||||
0,
|
||||
|
||||
10101002,
|
||||
02002000,
|
||||
10101002,
|
||||
02020000, //64
|
||||
|
||||
10101002,
|
||||
02002000,
|
||||
10101002,
|
||||
0,
|
||||
|
||||
10101002,
|
||||
02002000,
|
||||
10101007,
|
||||
08,
|
||||
#GOGOEND
|
||||
|
||||
10002001,
|
||||
01010100,
|
||||
30030303,
|
||||
03030300, //76
|
||||
|
||||
#GOGOSTART
|
||||
10101001,
|
||||
01002000,
|
||||
10101002,
|
||||
0,
|
||||
|
||||
10101001,
|
||||
01002000,
|
||||
5,
|
||||
000000000000000000000000000008000000000000000000, //84
|
||||
|
||||
1111,
|
||||
1110,
|
||||
1111,
|
||||
1120,
|
||||
|
||||
3333,
|
||||
3330,
|
||||
6,
|
||||
000000000000000000000000000008000000000000000000, //92
|
||||
#GOGOEND
|
||||
|
||||
3,
|
||||
0,
|
||||
3,
|
||||
0,
|
||||
|
||||
30020010,
|
||||
02020200,
|
||||
5,
|
||||
000000000000000000000000000008000000000000000000, //100
|
||||
|
||||
30030306,
|
||||
000000000000000000000000000000000000000000000008,
|
||||
0,
|
||||
0,
|
||||
0, //105
|
||||
#END
|
||||
Reference in New Issue
Block a user