tja
This commit is contained in:
522
tja/697.tja
Normal file
522
tja/697.tja
Normal file
@@ -0,0 +1,522 @@
|
||||
//TJADB Project
|
||||
TITLE:Kyokuken
|
||||
TITLEJA:極圏
|
||||
SUBTITLE:--cosMo@bousouP ℣ dj TAKA/SOUND VOLTEX
|
||||
SUBTITLEJA:cosMo VS dj TAKA「SOUND VOLTEX」より
|
||||
BPM:207
|
||||
WAVE:Kyokuken.ogg
|
||||
OFFSET:-1.303
|
||||
DEMOSTART:50.286
|
||||
|
||||
COURSE:Oni
|
||||
LEVEL:10
|
||||
BALLOON:4,4,4,4,12,2,50
|
||||
SCOREINIT:370
|
||||
SCOREDIFF:83
|
||||
|
||||
|
||||
#START
|
||||
|
||||
|
||||
#MEASURE 1/4
|
||||
#BARLINEOFF
|
||||
1122,
|
||||
#MEASURE 4/4
|
||||
#BARLINEON
|
||||
122122122122,
|
||||
211211211211,
|
||||
112112112112,
|
||||
211211211211,
|
||||
200000222020100000222020,
|
||||
122122121200,
|
||||
3020102011201020,
|
||||
1120102011201020,
|
||||
1022112011221120,
|
||||
30303303,
|
||||
0020102011201020,
|
||||
1120102011201020,
|
||||
1022112011221120,
|
||||
33030303,
|
||||
3000102011211020,
|
||||
1120102211201020,
|
||||
1022112211221120,
|
||||
33030333,
|
||||
3000102011201020,
|
||||
1120102211201020,
|
||||
1022112211221220,
|
||||
3030003000301110,
|
||||
11211212,
|
||||
1020102011101011,
|
||||
2022201010201010,
|
||||
434343,
|
||||
3,
|
||||
#BARLINEOFF
|
||||
,
|
||||
,
|
||||
#BARLINEON
|
||||
,
|
||||
101112202221,
|
||||
101112200100,
|
||||
112112101222,
|
||||
102111211122,
|
||||
500000000000000008000000500000000000000008000000,
|
||||
7878,
|
||||
500000000000000008000000500000000000000008000000,
|
||||
7878,
|
||||
500000000000000000000000000008000000100000700000,
|
||||
0008,
|
||||
500000000000000000000000000000000000000008000000,
|
||||
2022222222222220,//43
|
||||
|
||||
#GOGOSTART
|
||||
3021102011201020,
|
||||
1021102010221020,
|
||||
1022112211221120,
|
||||
2211221122112210,
|
||||
1002001011201020,
|
||||
1002001010221020,
|
||||
1002002030303020,
|
||||
1022222211112220,
|
||||
1021102011201020,
|
||||
1021102010221020,
|
||||
1122112211222220,
|
||||
1122112211221220,
|
||||
1002002030304000,
|
||||
1002002011104000,
|
||||
1002002010020020,
|
||||
1022112211211120,//59
|
||||
|
||||
#GOGOEND
|
||||
1022102200221120,
|
||||
1122112011211210,
|
||||
200000200200200020002000200200100100200200100000,
|
||||
100100200200100100200100202020002000202020002000,
|
||||
1121112111211120,
|
||||
2211221122111110,
|
||||
1122112211222210,
|
||||
2211221122212000,
|
||||
2111211121112120,
|
||||
2022112211211210,
|
||||
2211221111211121,
|
||||
1020201022221000,
|
||||
1122111120001000,
|
||||
1122112120001000,
|
||||
44040404,
|
||||
44040404,
|
||||
3030221022102210,
|
||||
4040221022102222,
|
||||
1002001022101020,//78
|
||||
|
||||
#GOGOSTART
|
||||
1020102211201020,
|
||||
7080112211221122,
|
||||
2211221020201020,
|
||||
1002001011222010,
|
||||
1002001011212010,
|
||||
12211221,
|
||||
1011221122112222,
|
||||
1002001012221020,
|
||||
1020102211221000,
|
||||
1122200011222000,
|
||||
1122102011221020,
|
||||
1002001011222010,
|
||||
1002001011212010,
|
||||
1022001010220010,
|
||||
1011221122112222,//93
|
||||
|
||||
#GOGOEND
|
||||
112112112112,
|
||||
211211211211,
|
||||
122122122122,
|
||||
1112111211121112,
|
||||
200000222020222020222020,
|
||||
2221222122212003,
|
||||
0700,
|
||||
,
|
||||
,
|
||||
,
|
||||
8,
|
||||
|
||||
|
||||
#END
|
||||
|
||||
|
||||
COURSE:Hard
|
||||
LEVEL:7
|
||||
BALLOON:3,3,3,3,8,12,8,8,8,12,8,8,18
|
||||
SCOREINIT:510
|
||||
SCOREDIFF:113
|
||||
|
||||
#START
|
||||
#MEASURE 1/4
|
||||
#BARLINEOFF
|
||||
,
|
||||
#MEASURE 4/4
|
||||
#BARLINEON
|
||||
110110110110,
|
||||
220220220220,
|
||||
110220110220,
|
||||
110220110220,
|
||||
3,
|
||||
,
|
||||
1000100010111000,
|
||||
1122,
|
||||
1000200022202000,
|
||||
30303303,
|
||||
0000100010111000,
|
||||
10102120,
|
||||
1000200022202000,
|
||||
33030303,
|
||||
3000100010111000,
|
||||
10212120,
|
||||
1000200022202000,
|
||||
33030333,
|
||||
3000200010111000,
|
||||
10212120,
|
||||
1000200022202020,
|
||||
33030333,
|
||||
10210210,
|
||||
2010002010111000,
|
||||
10102102,
|
||||
333444,
|
||||
3,
|
||||
#BARLINEOFF
|
||||
,
|
||||
,
|
||||
#BARLINEON
|
||||
,
|
||||
200200222200,
|
||||
2220,
|
||||
200200222200,
|
||||
2220,
|
||||
500000000000000008000000500000000000000008000000,
|
||||
7878,
|
||||
500000000000000008000000500000000000000008000000,
|
||||
7878,
|
||||
500000000000000000000000000000000000000008000000,
|
||||
7008,
|
||||
500000000000000000000000000000000000000008000000,
|
||||
2022202220222000,//43
|
||||
|
||||
#GOGOSTART
|
||||
3000200010111000,
|
||||
10212120,
|
||||
7,
|
||||
0822,
|
||||
1002001000111000,
|
||||
1002001000111000,
|
||||
1001001020020020,
|
||||
7008,
|
||||
1000200010111000,
|
||||
10212120,
|
||||
1011100010111000,
|
||||
2002002030000000,
|
||||
1002001000222000,
|
||||
1002001000222000,
|
||||
1001001020020020,
|
||||
7008,//59
|
||||
|
||||
#GOGOEND
|
||||
11221120,
|
||||
1020100011101000,
|
||||
22112220,
|
||||
1010200022202000,
|
||||
11221120,
|
||||
2020100022202000,
|
||||
12121210,
|
||||
7008,
|
||||
11221120,
|
||||
2010200022202000,
|
||||
22112210,
|
||||
1010202022201000,
|
||||
1000222020003000,
|
||||
1000222020003000,
|
||||
44040404,
|
||||
44040404,
|
||||
33030303,
|
||||
44040400,
|
||||
3,//78
|
||||
|
||||
#GOGOSTART
|
||||
10212120,
|
||||
7,
|
||||
00802121,
|
||||
1002001000222000,
|
||||
1002001000222000,
|
||||
1001001020020020,
|
||||
7008,
|
||||
10121210,
|
||||
10212120,
|
||||
2022200020222000,
|
||||
2002002030000000,
|
||||
1002001000222000,
|
||||
1002001000222000,
|
||||
1001001020020020,
|
||||
7008,//93
|
||||
|
||||
#GOGOEND
|
||||
110110110110,
|
||||
220220220220,
|
||||
110220110220,
|
||||
110110220220,
|
||||
7,
|
||||
08,
|
||||
0300,
|
||||
,
|
||||
,
|
||||
,
|
||||
,
|
||||
,
|
||||
#END
|
||||
|
||||
COURSE:Normal
|
||||
LEVEL:7
|
||||
BALLOON:6,12,5,5,5,12,5,5,12
|
||||
SCOREINIT:590
|
||||
SCOREDIFF:143
|
||||
|
||||
#START
|
||||
#MEASURE 1/4
|
||||
#BARLINEOFF
|
||||
,
|
||||
#MEASURE 4/4
|
||||
#BARLINEON
|
||||
1122,
|
||||
1122,
|
||||
1111,
|
||||
2222,
|
||||
4,
|
||||
,
|
||||
10001110,
|
||||
1122,
|
||||
10202220,
|
||||
30303303,
|
||||
00101110,
|
||||
1122,
|
||||
10202220,
|
||||
33030303,
|
||||
30102220,
|
||||
1122,
|
||||
10202222,
|
||||
33030333,
|
||||
30102220,
|
||||
1212,
|
||||
10202222,
|
||||
33030330,
|
||||
10110220,
|
||||
11022030,
|
||||
00101101,
|
||||
500000000000000000000000000000000008000000000000,
|
||||
3,
|
||||
#BARLINEOFF
|
||||
,
|
||||
,
|
||||
#BARLINEON
|
||||
,
|
||||
20202022,
|
||||
2220,
|
||||
20202022,
|
||||
2220,
|
||||
500000000000000000000000000000000008000000000000,
|
||||
11,
|
||||
500000000000000000000000000000000008000000000000,
|
||||
11,
|
||||
5,
|
||||
000000000000000000000000000000000008000000000000,
|
||||
7,
|
||||
8,//43
|
||||
|
||||
#GOGOSTART
|
||||
10101110,
|
||||
1122,
|
||||
7,
|
||||
08,
|
||||
1001003000000000,
|
||||
2002004000000000,
|
||||
1001001010010010,
|
||||
70000800,
|
||||
10101110,
|
||||
1122,
|
||||
5,
|
||||
000000000000000000000000000000000008000000000000,
|
||||
1001003000000000,
|
||||
2002004000000000,
|
||||
1001001010010010,
|
||||
70000800,//59
|
||||
|
||||
#GOGOEND
|
||||
1101,
|
||||
10101110,
|
||||
2202,
|
||||
20202220,
|
||||
10101110,
|
||||
20202220,
|
||||
10101110,
|
||||
70000800,
|
||||
1111,
|
||||
11101110,
|
||||
2222,
|
||||
22202220,
|
||||
1104,
|
||||
1104,
|
||||
33030303,
|
||||
44040404,
|
||||
33030303,
|
||||
44040400,
|
||||
3,//78
|
||||
|
||||
#GOGOSTART
|
||||
10101110,
|
||||
7,
|
||||
08,
|
||||
1001001000004000,
|
||||
1001001000004000,
|
||||
1001001010010010,
|
||||
70000800,
|
||||
10101110,
|
||||
1122,
|
||||
11102220,
|
||||
11104000,
|
||||
1001001000004000,
|
||||
1001001000004000,
|
||||
1001001010010010,
|
||||
70000800,//93
|
||||
|
||||
#GOGOEND
|
||||
1111,
|
||||
2222,
|
||||
1212,
|
||||
1122,
|
||||
7,
|
||||
08,
|
||||
0300,
|
||||
,
|
||||
,
|
||||
,
|
||||
,
|
||||
,
|
||||
#END
|
||||
|
||||
COURSE:Easy
|
||||
LEVEL:5
|
||||
BALLOON:5,10,4,4,4,10,4,4,10
|
||||
SCOREINIT:440
|
||||
SCOREDIFF:95
|
||||
|
||||
#START
|
||||
#MEASURE 1/4
|
||||
#BARLINEOFF
|
||||
,
|
||||
#MEASURE 4/4
|
||||
#BARLINEON
|
||||
11,
|
||||
22,
|
||||
1111,
|
||||
2222,
|
||||
3,
|
||||
,
|
||||
11,
|
||||
1110,
|
||||
12,
|
||||
30303003,
|
||||
01,
|
||||
2220,
|
||||
12,
|
||||
30030300,
|
||||
31,
|
||||
2220,
|
||||
1120,
|
||||
30030300,
|
||||
31,
|
||||
1122,
|
||||
1120,
|
||||
30030330,
|
||||
1212,
|
||||
1213,
|
||||
0212,
|
||||
500000000000000000000000000008000000000000000000,
|
||||
3,
|
||||
#BARLINEOFF
|
||||
,
|
||||
,
|
||||
#BARLINEON
|
||||
,
|
||||
22,
|
||||
2,
|
||||
22,
|
||||
2,
|
||||
500000000000000000000000000008000000000000000000,
|
||||
11,
|
||||
500000000000000000000000000008000000000000000000,
|
||||
11,
|
||||
5,
|
||||
000000000000000000000000000008000000000000000000,
|
||||
7,
|
||||
8,//43
|
||||
|
||||
#GOGOSTART
|
||||
1011,
|
||||
1011,
|
||||
7,
|
||||
08,
|
||||
1210,
|
||||
1210,
|
||||
1122,
|
||||
70000800,
|
||||
1022,
|
||||
1022,
|
||||
5,
|
||||
000000000000000000000000000008000000000000000000,
|
||||
1230,
|
||||
1230,
|
||||
1122,
|
||||
70000800,//59
|
||||
|
||||
#GOGOEND
|
||||
1110,
|
||||
2220,
|
||||
1111,
|
||||
2240,
|
||||
2211,
|
||||
2210,
|
||||
1122,
|
||||
70000800,
|
||||
1122,
|
||||
2240,
|
||||
1111,
|
||||
2240,
|
||||
3300,
|
||||
3300,
|
||||
33030300,
|
||||
44040400,
|
||||
33030300,
|
||||
44040400,
|
||||
3,//78
|
||||
|
||||
#GOGOSTART
|
||||
1122,
|
||||
7,
|
||||
08,
|
||||
1210,
|
||||
1210,
|
||||
1122,
|
||||
70000800,
|
||||
1011,
|
||||
1022,
|
||||
34,
|
||||
3440,
|
||||
1230,
|
||||
1230,
|
||||
1122,
|
||||
70000800,//93
|
||||
|
||||
#GOGOEND
|
||||
1111,
|
||||
2222,
|
||||
1122,
|
||||
1122,
|
||||
7,
|
||||
08,
|
||||
0300,
|
||||
|
||||
#END
|
||||
Reference in New Issue
Block a user