tja
This commit is contained in:
575
tja/711.tja
Normal file
575
tja/711.tja
Normal file
@@ -0,0 +1,575 @@
|
||||
//TJADB Project
|
||||
TITLE:Mita-koto mo Nai Keshiki
|
||||
TITLEJA:見たこともない景色
|
||||
SUBTITLE:--Masaki Suda/BLUE CHALLENGE: Support Edition
|
||||
SUBTITLEJA:au 三太郎サッカー応援 CMソング
|
||||
BPM:181
|
||||
WAVE:Mita-koto mo Nai Keshiki.ogg
|
||||
OFFSET:-1.560
|
||||
DEMOSTART:40.659
|
||||
|
||||
//shinuchi: 8530/7110/3470/2800/1700
|
||||
|
||||
COURSE:Edit
|
||||
LEVEL:8
|
||||
BALLOON:
|
||||
SCOREINIT:520,1730
|
||||
SCOREDIFF:140
|
||||
|
||||
#START
|
||||
20202220,
|
||||
22202220,
|
||||
20202220,
|
||||
22202220,
|
||||
|
||||
20122122,
|
||||
1020201120201020,
|
||||
20122122,
|
||||
1020201120202010, //8
|
||||
|
||||
10102101,
|
||||
0010001110102000,
|
||||
10102101,
|
||||
0010200010102011,
|
||||
|
||||
10102101,
|
||||
0010001110102000,
|
||||
10121121,
|
||||
1010200210202020, //16
|
||||
|
||||
1010201110102011,
|
||||
1010201110202010,
|
||||
1010201110102011,
|
||||
1010201110202010,
|
||||
3,
|
||||
2,
|
||||
|
||||
1000202210102010,
|
||||
12112120,
|
||||
1000202210102010,
|
||||
1020101020102011,
|
||||
|
||||
1000201110002011,
|
||||
2,
|
||||
4011104011104011,
|
||||
1040111022102211, //30
|
||||
|
||||
#GOGOSTART
|
||||
1010201020112010,
|
||||
1110200011102010,
|
||||
1010201020112010,
|
||||
1110200011102010,
|
||||
|
||||
1000201110002011,
|
||||
11212121,
|
||||
2011201020112010,
|
||||
2000201022102211, //38
|
||||
|
||||
1010201020112010,
|
||||
1110200011102010,
|
||||
1010201020112010,
|
||||
1110200011102010,
|
||||
|
||||
1000201110002011,
|
||||
11212121,
|
||||
2011201020112010, //46
|
||||
2000201022102222,
|
||||
|
||||
1010201020112010,
|
||||
2220100022102010,
|
||||
1010201020112010,
|
||||
2220100022102010,
|
||||
|
||||
1000201110002011,
|
||||
11212121,
|
||||
2011201020112010,
|
||||
2000201022102211,
|
||||
|
||||
1010201020112010,
|
||||
2210201120102010,
|
||||
1010201020112010,
|
||||
2210201120201010, //58
|
||||
#GOGOEND
|
||||
|
||||
1000101020102011,
|
||||
11202122,
|
||||
1000101020102011,
|
||||
11202122,
|
||||
|
||||
3000000000000011,
|
||||
1,
|
||||
0000000022022022, //65
|
||||
|
||||
#GOGOSTART
|
||||
2020201022102010,
|
||||
2210201022102010,
|
||||
2020201022102010,
|
||||
1120201022102010,
|
||||
|
||||
2020201022102010,
|
||||
2210201022102010,
|
||||
4011104011104022,
|
||||
1010402210102020, //73
|
||||
#GOGOEND
|
||||
|
||||
3,
|
||||
#BARLINEOFF
|
||||
0,
|
||||
0,
|
||||
0,
|
||||
0,
|
||||
0,
|
||||
0, //80
|
||||
#END
|
||||
|
||||
|
||||
COURSE:Oni
|
||||
LEVEL:6
|
||||
BALLOON:17
|
||||
SCOREINIT:810,2990
|
||||
SCOREDIFF:220
|
||||
|
||||
#START
|
||||
2,
|
||||
2,
|
||||
2,
|
||||
2,
|
||||
|
||||
20112210,
|
||||
22102210,
|
||||
20112210,
|
||||
22102221, //8
|
||||
|
||||
10011001,
|
||||
10011020,
|
||||
5,
|
||||
000008000000000000000000000000000000000000100000,
|
||||
|
||||
10011022,
|
||||
11010020,
|
||||
500000000000000000000000000000000000000000000008,
|
||||
0000200020111010, //16
|
||||
|
||||
10211121,
|
||||
0010201110102000,
|
||||
10211121,
|
||||
0010201110102000,
|
||||
1,
|
||||
2,
|
||||
|
||||
10011022,
|
||||
00111020,
|
||||
5,
|
||||
000008000000000000000000000000000000000000100000,
|
||||
|
||||
10011001,
|
||||
2,
|
||||
7,
|
||||
0000800011101010, //30
|
||||
|
||||
#GOGOSTART
|
||||
600000000000080000300300,
|
||||
0000000011101010,
|
||||
600000000000080000300300,
|
||||
0000000011101010,
|
||||
|
||||
1000201110002011,
|
||||
1222,
|
||||
2000102220001022,
|
||||
2000000022201010, //38
|
||||
|
||||
600000000000080000300300,
|
||||
0000000022201010,
|
||||
600000000000000000000008000000300000300000300000,
|
||||
0000000011102020,
|
||||
|
||||
1000201110002011,
|
||||
1222,
|
||||
2000102220001022,
|
||||
2000000011102020, //46
|
||||
|
||||
600000000000080000300300,
|
||||
0000000011102020,
|
||||
600000000000080000300300,
|
||||
0000000011102020,
|
||||
|
||||
1000201110002011,
|
||||
1222,
|
||||
2000102220001022,
|
||||
2000000011102020,
|
||||
|
||||
600000000000080000300300,
|
||||
0000001110102020,
|
||||
600000000000080000300300,
|
||||
00002222, //58
|
||||
#GOGOEND
|
||||
|
||||
10112101,
|
||||
01202211,
|
||||
10112101,
|
||||
01202222,
|
||||
|
||||
1000000000000011,
|
||||
1,
|
||||
0, //65
|
||||
|
||||
#GOGOSTART
|
||||
11221120,
|
||||
2220200022202000,
|
||||
11221120,
|
||||
2220202022202000,
|
||||
|
||||
11221120,
|
||||
2220200022202000,
|
||||
11221120,
|
||||
2220200022202020, //73
|
||||
#GOGOEND
|
||||
|
||||
3,
|
||||
#BARLINEOFF
|
||||
0,
|
||||
0,
|
||||
0,
|
||||
0,
|
||||
0,
|
||||
0, //80
|
||||
#END
|
||||
|
||||
|
||||
COURSE:Hard
|
||||
LEVEL:4
|
||||
BALLOON:14
|
||||
SCOREINIT:730,3790
|
||||
SCOREDIFF:213
|
||||
|
||||
#START
|
||||
2,
|
||||
2,
|
||||
2,
|
||||
2,
|
||||
|
||||
20202220,
|
||||
22202220,
|
||||
20202220,
|
||||
22202220, //8
|
||||
|
||||
10011001,
|
||||
10011020,
|
||||
5,
|
||||
000008000000000000000000000000000000000000000000,
|
||||
|
||||
10011011,
|
||||
11010020,
|
||||
5,
|
||||
000008000000000000000000200000000000200000000000, //16
|
||||
|
||||
10201120,
|
||||
10201120,
|
||||
10201120,
|
||||
10201111,
|
||||
1,
|
||||
2,
|
||||
|
||||
10011011,
|
||||
00111020,
|
||||
5,
|
||||
000008000000000000000000000000000000000000100000,
|
||||
|
||||
10011001,
|
||||
1,
|
||||
7,
|
||||
00801111, //30
|
||||
|
||||
#GOGOSTART
|
||||
600000000000080000300300,
|
||||
00001111,
|
||||
600000000000080000300300,
|
||||
00001122,
|
||||
|
||||
10221022,
|
||||
1222,
|
||||
20112011,
|
||||
20001111, //38
|
||||
|
||||
600000000000080000300300,
|
||||
00001111,
|
||||
600000000000000008000000000000300000300000300000,
|
||||
00001022,
|
||||
|
||||
10221022,
|
||||
1222,
|
||||
20112011,
|
||||
20001111, //46
|
||||
|
||||
600000000000080000300300,
|
||||
00001111,
|
||||
600000000000080000300300,
|
||||
00001122,
|
||||
|
||||
10221022,
|
||||
1222,
|
||||
20112011,
|
||||
20001122,
|
||||
|
||||
600000000000080000300300,
|
||||
00010221,
|
||||
600000000000080000300300,
|
||||
02, //58
|
||||
#GOGOEND
|
||||
|
||||
10202001,
|
||||
0220,
|
||||
10202001,
|
||||
0220,
|
||||
|
||||
1,
|
||||
3,
|
||||
0, //65
|
||||
|
||||
#GOGOSTART
|
||||
11201120,
|
||||
22202220,
|
||||
11201120,
|
||||
22202220,
|
||||
|
||||
11221120,
|
||||
22202220,
|
||||
11221120,
|
||||
22202222, //73
|
||||
#GOGOEND
|
||||
|
||||
3,
|
||||
#BARLINEOFF
|
||||
0,
|
||||
0,
|
||||
0,
|
||||
0,
|
||||
0,
|
||||
0, //80
|
||||
#END
|
||||
|
||||
|
||||
COURSE:Normal
|
||||
LEVEL:2
|
||||
BALLOON:10,10
|
||||
SCOREINIT:1010,8640
|
||||
SCOREDIFF:435
|
||||
|
||||
#START
|
||||
1,
|
||||
1,
|
||||
1,
|
||||
1,
|
||||
|
||||
1,
|
||||
2,
|
||||
1,
|
||||
2, //8
|
||||
|
||||
11,
|
||||
11,
|
||||
5,
|
||||
000008000000000000000000000000000000000000000000,
|
||||
|
||||
11,
|
||||
1,
|
||||
5,
|
||||
000008000000000000000000100000000000100000000000, //16
|
||||
|
||||
12,
|
||||
1011,
|
||||
12,
|
||||
1011,
|
||||
7,
|
||||
08,
|
||||
|
||||
11,
|
||||
1110,
|
||||
5,
|
||||
000008000000000000000000000000000000000000000000,
|
||||
|
||||
11,
|
||||
3,
|
||||
7,
|
||||
0833, //30
|
||||
|
||||
#GOGOSTART
|
||||
6,
|
||||
000008000000000000000000300000000000300000000000,
|
||||
6,
|
||||
000008000000000000000000100000000000100000000000,
|
||||
|
||||
11,
|
||||
1111,
|
||||
12,
|
||||
2033, //38
|
||||
|
||||
6,
|
||||
000008000000000000000000300000000000300000000000,
|
||||
6,
|
||||
000008000000000000000000100000000000100000000000,
|
||||
|
||||
11,
|
||||
2222,
|
||||
22,
|
||||
2033, //46
|
||||
|
||||
6,
|
||||
000008000000000000000000300000000000300000000000,
|
||||
6,
|
||||
000008000000000000000000100000000000100000000000,
|
||||
|
||||
11,
|
||||
1111,
|
||||
12,
|
||||
2033,
|
||||
|
||||
6,
|
||||
000008000000000000000000300000000000300000000000,
|
||||
6,
|
||||
000008000000000000000000200000000000000000000000, //58
|
||||
#GOGOEND
|
||||
|
||||
12,
|
||||
02,
|
||||
12,
|
||||
02,
|
||||
|
||||
1,
|
||||
3,
|
||||
0, //65
|
||||
|
||||
#GOGOSTART
|
||||
11,
|
||||
1011,
|
||||
11,
|
||||
1022,
|
||||
|
||||
11,
|
||||
1011,
|
||||
11,
|
||||
1022, //73
|
||||
#GOGOEND
|
||||
|
||||
3,
|
||||
#BARLINEOFF
|
||||
0,
|
||||
0,
|
||||
0,
|
||||
0,
|
||||
0,
|
||||
0, //80
|
||||
#END
|
||||
|
||||
|
||||
COURSE:Easy
|
||||
LEVEL:1
|
||||
BALLOON:8,7
|
||||
SCOREINIT:800,13000
|
||||
SCOREDIFF:465
|
||||
|
||||
#START
|
||||
1,
|
||||
1,
|
||||
1,
|
||||
1,
|
||||
|
||||
1,
|
||||
2,
|
||||
1,
|
||||
2, //8
|
||||
|
||||
11,
|
||||
1,
|
||||
5,
|
||||
000008000000000000000000000000000000000000000000,
|
||||
|
||||
11,
|
||||
1,
|
||||
5,
|
||||
000008000000000000000000000000000000000000000000, //16
|
||||
|
||||
11,
|
||||
1,
|
||||
22,
|
||||
2,
|
||||
7,
|
||||
08,
|
||||
|
||||
11,
|
||||
1,
|
||||
5,
|
||||
000008000000000000000000000000000000000000000000,
|
||||
|
||||
11,
|
||||
3,
|
||||
7,
|
||||
08003000, //30
|
||||
|
||||
#GOGOSTART
|
||||
6,
|
||||
000008000000000000000000300000000000000000000000,
|
||||
6,
|
||||
000008000000000000000000300000000000000000000000,
|
||||
|
||||
33,
|
||||
44,
|
||||
33,
|
||||
43, //38
|
||||
|
||||
6,
|
||||
000008000000000000000000300000000000000000000000,
|
||||
6,
|
||||
000008000000000000000000300000000000000000000000,
|
||||
|
||||
33,
|
||||
44,
|
||||
33,
|
||||
43, //46
|
||||
|
||||
6,
|
||||
000008000000000000000000300000000000000000000000,
|
||||
6,
|
||||
000008000000000000000000300000000000000000000000,
|
||||
|
||||
33,
|
||||
44,
|
||||
33,
|
||||
43,
|
||||
|
||||
6,
|
||||
000008000000000000000000300000000000000000000000,
|
||||
6,
|
||||
000008000000000000000000000000000000000000000000, //58
|
||||
#GOGOEND
|
||||
|
||||
1,
|
||||
11,
|
||||
0,
|
||||
0,
|
||||
|
||||
1,
|
||||
3,
|
||||
0, //65
|
||||
|
||||
#GOGOSTART
|
||||
1,
|
||||
11,
|
||||
1,
|
||||
22,
|
||||
|
||||
1,
|
||||
11,
|
||||
1,
|
||||
22, //73
|
||||
#GOGOEND
|
||||
|
||||
3,
|
||||
#BARLINEOFF
|
||||
0,
|
||||
0,
|
||||
0,
|
||||
0,
|
||||
0,
|
||||
0, //80
|
||||
#END
|
||||
Reference in New Issue
Block a user