This commit is contained in:
2026-03-04 23:59:27 +09:00
parent 6e0312f5b4
commit 4b4e2b8c98
1128 changed files with 668765 additions and 0 deletions

465
tja/725.tja Normal file
View File

@@ -0,0 +1,465 @@
//TJADB Project
TITLE:Rei -ZERO-
TITLEJA:零 -ZERO-
SUBTITLE:--Masaharu Fukuyama/Detective Conan Zero the Enforcer
SUBTITLEJA:福山雅治 「名探偵コナン ゼロの執行人」より
BPM:96.48
WAVE:Rei -ZERO-.ogg
OFFSET:-2.803
DEMOSTART:67.106
COURSE:Oni
LEVEL:7
SCOREINIT:560
SCOREDIFF:150
#START
#SCROLL 0.97
12220222,
#BPMCHANGE 91.65
#SCROLL 1.02
12222020,
#BPMCHANGE 94
#SCROLL 1
12220222,
12222020,
12220222,
12220202,
12220222,
#MEASURE 7/4
#BPMCHANGE 78.59
#SCROLL 1.19
1
#BPMCHANGE 72.84
#SCROLL 1.16
2
#BPMCHANGE 62.44
#SCROLL 1.22
2
#BPMCHANGE 62.66
#SCROLL 1.1
2
#BPMCHANGE 64.24
#SCROLL 0.97
20000000,
#MEASURE 4/4
#SCROLL 1
#BPMCHANGE 174.38
3002,
00000001,
#BPMCHANGE 176
3002,
00000001,
1022202000202000,
1022202000202020,
1022202000202020,
1022202000202010,
1022202000202000,
1022202000202020,
1022202000202020,
1022201110202010,
1022202000202010,
2022202000202010,
1022202000202020,
1022201110202010,
1022202000202010,
2022202000202010,
1022202000202020,
#BPMCHANGE 179.7
1022201110202010,
#BPMCHANGE 176
30230230,
0000001110102000,
30230230,
0000001110102000,
3022203022203000,
0000001110102000,
3022203022203000,
00000120,
1022201000202020,
33300000,//38
#GOGOSTART
100222200100100000200000,
10221020,
100222200100100000200000,
10221020,
100222200200100000200200,
12201222,
300222200200300000200200,
30221220,
100222200100100000200000,
10221020,
100222200100100000200000,
10221020,
100222200200100000200200,
12201222,
300222200200300000200200,
30221220,
300222200200300000200200,
30221220,
500000000000000008000000500000000000000008000000,
500000000000000008000000500000000000000008000000,
600000000000000000000000000000000000000008000000,
33300000,//60
#GOGOEND
#BPMCHANGE 172.77
#SCROLL 1.01
1011101000101010,
#BPMCHANGE 176
#SCROLL 1
2022202000202020,
1011101000101010,
2022202000222020,
#BPMCHANGE 177.56
#SCROLL 0.99
1011101000102020,
1022202000222010,
#BPMCHANGE 177.05
1011101000102020,
1022202000222010,
#GOGOSTART
#BPMCHANGE 176
12221222,
12122212,
12221222,
12122212,
#BPMCHANGE 172.9
#SCROLL 1.01
33330203,
#BPMCHANGE 176
#SCROLL 1
33330203,
33330203,
33330000,
#GOGOEND
#END
COURSE:Hard
LEVEL:5
BALLOON:27
SCOREINIT:720
SCOREDIFF:200
#START
1,
2,
1,
2,
12,
10002022,
#BPMCHANGE 92.5
12,
#BPMCHANGE 85.3
#MEASURE 6/4
1
#BPMCHANGE 72.8
0
#BPMCHANGE 63.7
0
#BPMCHANGE 58.2
0
#BPMCHANGE 51.6
00000000,
#BPMCHANGE 176
#MEASURE 4/4
3002,
,
3002,
,
10020220,
10020220,
10020222,
,
10020220,
10020220,
10020222,
,
10020220,
20020220,
10020222,
,
10020220,
20020220,
10020222,
00010110,
30030030,
00010120,
30030030,
00011120,
30030030,
00011120,
30030030,
00000120,
500000000000000000000000000000000008000000000000,
33300000,//38
#GOGOSTART
1022200010002000,
1210,
1022200010002000,
1210,
2220200020002020,
22202000,
33,
3,
1022200010002000,
1210,
1022200010002000,
1210,
2220200020002020,
22202000,
33,
3,
33,
3,
9,
,
0900,
8,//60
#GOGOEND
1001,
2002,
1001,
2002,
10010020,
10010020,
10010020,
10010020,//68
#GOGOSTART
11221122,
11221120,
11221122,
11221120,
33330003,
33330003,
33330003,
33330000,//76
#GOGOEND
,
,
#END
COURSE:Normal
LEVEL:3
BALLOON:12,22
#START
1,
2,
1,
2,
12,
1,
#BPMCHANGE 92.5
12,
#BPMCHANGE 85.3
#MEASURE 6/4
1
#BPMCHANGE 72.8
0
#BPMCHANGE 63.7
0
#BPMCHANGE 58.2
0
#BPMCHANGE 51.6
00000000,
#BPMCHANGE 176
#MEASURE 4/4
3,
,
7,
0008,
1,
1,
1,
2,
1,
1,
1,
2,
1,
20020000,
1,
2,
1,
20020000,
1,
2,
10010010,
,
10010010,
,
30030030,
,
30030030,
,
500000000000000000000000000000000008000000000000,
33300000,//38
#GOGOSTART
10011000,
11,
10011000,
11,
2220,
2220,
33,
3,
10011000,
11,
10011000,
11,
2220,
2220,
33,
3,
33,
3,
9,
,
0900,
8,//60
#GOGOEND
1,
2,
1,
2,
1001,
2002,
1001,
2,//68
#GOGOSTART
1110,
1110,
1111,
1110,
11110001,
11110001,
11110003,
33330000,//76
#GOGOEND
,
,
#END
COURSE:Easy
LEVEL:2
BALLOON:9,6,18
#START
1,
1,
1,
1,
12,
1,
#BPMCHANGE 92.5
12,
#BPMCHANGE 85.3
#MEASURE 6/4
1
#BPMCHANGE 72.8
0
#BPMCHANGE 63.7
0
#BPMCHANGE 58.2
0
#BPMCHANGE 51.6
00000000,
#BPMCHANGE 176
#MEASURE 4/4
3,
,
7,
0008,
1,
,
1,
,
1,
,
1,
,
1,
2,
1,
,
1,
2,
1,
,
10010010,
,
10010010,
,
30030030,
,
30030030,
,
7,
8,//38
#GOGOSTART
11,
1,
11,
1,
2,
2,
33,
3,
11,
1,
11,
1,
2,
2,
33,
3,
33,
3,
9,
,
0900,
8,//60
#GOGOEND
1,
,
1,
,
1,
2,
1,
2,//68
#GOGOSTART
11,
11,
1110,
1110,
3,
3,
3,
33330000,//76
#GOGOEND
,
,
#END