This commit is contained in:
2026-03-04 23:59:27 +09:00
parent 6e0312f5b4
commit 4b4e2b8c98
1128 changed files with 668765 additions and 0 deletions

439
tja/727.tja Normal file
View File

@@ -0,0 +1,439 @@
//TJADB Project
TITLE:Asu no Yozora Shoukaihan
TITLEJA:アスノヨゾラ哨戒班
SUBTITLE:--Orangestar feat. IA
SUBTITLEJA:Orangestar
BPM:185
WAVE:Asu no Yozora Shoukaihan.ogg
OFFSET:-1.153
DEMOSTART:34.444
COURSE:Oni
LEVEL:9
BALLOON:6,5
SCOREINIT:410
SCOREDIFF:90
#START
#MEASURE 1/4
#BARLINEOFF
0,
#MEASURE 4/4
#BARLINEON
1,
1,
1,
1,
1,
1,
1,
1,
1000102010201022,
1020102010221020,
1000102010201022,
1020102010221020,
1000102010201022,
1020102010221020,
1000102010201022,
1020102010221020,
1,
2,
1,
2,
1020102010221020,
1022102010221020,
1020202210202022,
1020202210202022,
5,
000000000000000008000000300000000000000000000000,
#GOGOSTART
1011201110112011,
1011201110202011,
1011201110112050,
000008000000700000000000000000800000300000300000,
0011201110222011,
1011201110202011,
1011201110222011,
1020201212102030,
0010201110112011,
1011201110202011,
1011201110112050,
000008000000700000000000800000300000000000300000,
0010201110222011,
1011201110202011,
1011201110222011,
1020201212102050,
,
,
,
000000000000000008000000600000000008000000300000,
0011201110112010,
2011201110112010,
2011201110112010,
2011201212102030,
0011201110222010,
2011201110222010,
2011201110222010,
2011201212102030,
0011202210112010,
2011202210112010,
2011202210112010,
2011201212102020,
1011201120112210,
1011201120122210,
1011201120112210,
1022101022100030,
0011102011102011,
2010201122102011,
1020111020112010,
2011201212102030,
0011201120112210,
1011201120122210,
1011201120112210,
1022101022100030,
0011102011102011,
2010201122102011,
1020111020112010,
2011201212102010,
05000000,
,
,
000000000000000008000000600000000008000000300000,
0011201110112011,
1011201110222011,
1011201110112011,
1011201212102030,
0011202210222011,
1011202210112011,
1011202210222011,
1011202121202030,
0011201122112011,
1011201121112011,
1011201122112011,
1011201212102030,
#GOGOEND
0,
,
#END
COURSE:Hard
LEVEL:7
BALLOON:27,0
SCOREINIT:520
SCOREDIFF:110
#START
#MEASURE 1/4
#BARLINEOFF
0,
#MEASURE 4/4
#BARLINEON
1,
1,
1,
1,
1,
1,
1,
1,
1112,
1112,
1112,
1112,
10101210,
10101210,
10101210,
10101210,
1,
2,
1,
2,
10101210,
10101210,
11121112,
11121112,
5,
000000000000000000000008000000000000000000000000,
#GOGOSTART
10201120,
1110101010002000,
1110200011102050,
000000000000000000000008000000000000300000300000,
01201120,
1110200010102000,
1110200010102010,
00001113,
01201120,
1110101010002000,
1110200011102050,
000000000000000000000008000000300000000000300000,
01201120,
1110200010102000,
1110200010102010,
01022229,
,
,
90000008,
00000003,
0010100011102010,
0010100011102010,
0010100011102010,
0010100011102030,
0010100022202010,
0010100022202010,
0010100022202010,
0010100022202030,
0010100011102010,
0010100011102010,
0010100011102010,
0010100011102000,
10101022,
10101022,
10101022,
10221103,
0010100022202010,
0010100022202010,
0010100022202010,
0010100022202030,
00101022,
10101022,
10101022,
10221103,
0010100022202010,
0010100011102010,
0010100022202010,
0010100011102010,
05000000,
,
,
000000000000000000000008000000000000000000300000,
0010101022201010,
0010101022201010,
0010101022201010,
0010101022202030,
0010101022201010,
0010101022201010,
0010101022201010,
0010101022202030,
0010101011102010,
0010101022202010,
0010101011102010,
0010101022202030,
#GOGOEND
#END
COURSE:Normal
LEVEL:6
BALLOON:21,0
SCOREINIT:550
SCOREDIFF:140
#START
#MEASURE 1/4
#BARLINEOFF
,
#MEASURE 4/4
#BARLINEON
1,
1,
1,
1,
1,
1,
1,
1,
1010,
1110,
1010,
1110,
1010,
1112,
1010,
1112,
1,
2,
1,
2,
1111,
1111,
11101110,
11101110,
5,
000000000000000000000008000000000000000000000000,
#GOGOSTART
1112,
11101020,
11101025,
000000000000000000000008000000000000000000300000,
0112,
11101020,
11101002,
00000003,
0112,
11101020,
11101025,
000000000000000000000008000000000000000000300000,
0112,
11101020,
11101002,
00000009,
,
,
90000008,
00000003,
01101001,
01101001,
01101001,
01101003,
01101002,
01101002,
01101002,
01101003,
01101002,
01101001,
01101002,
01101000,
10101022,
10101022,
10101022,
10101003,
01101011,
01101011,
01101011,
01101003,
00101022,
10101022,
10101022,
10101003,
01101011,
01101011,
01101011,
01101001,
05000000,
,
,
000000000000000000000008000000000000000000300000,
01101011,
01101011,
01101011,
01102003,
01101011,
01101011,
01101011,
01102003,
01101022,
01101022,
01101022,
01101003,
#GOGOEND
,
,
#END
COURSE:Easy
LEVEL:4
BALLOON:18,0
SCOREINIT:500
SCOREDIFF:120
#START
#MEASURE 1/4
#BARLINEOFF
0,
#MEASURE 4/4
#BARLINEON
1,
1,
1,
1,
1,
1,
1,
1,
1010,
1,
1010,
1,
1010,
1,
1010,
1,
1,
2,
1,
2,
1010,
1010,
1110,
1110,
5,
000000000000000000000008000000000000000000000000,
#GOGOSTART
1010,
1110,
10101005,
000000000000000000000008000000000000000000300000,
0010,
1,
10101001,
00000003,
0010,
1110,
10101005,
000000000000000000000008000000000000000000300000,
0010,
1,
10101001,
00000009,
,
,
90000008,
00000003,
00101001,
00101001,
00101001,
00101003,
00101002,
00101002,
00101002,
00101003,
00101002,
00101002,
00101002,
0110,
1110,
1110,
1110,
10101003,
00101001,
00101001,
00101001,
00101003,
0110,
1110,
1110,
10101003,
00101001,
00101001,
00101001,
00101001,
05000000,
,
,
000000000000000000000008000000000000000000300000,
00101001,
00101001,
00101001,
00101003,
00101002,
00101001,
00101002,
00101003,
00101002,
00101001,
00101002,
00101003,
#GOGOEND
,
,
#END