tja
This commit is contained in:
717
tja/730.tja
Normal file
717
tja/730.tja
Normal file
@@ -0,0 +1,717 @@
|
||||
//TJADB Project
|
||||
TITLE:Hibana
|
||||
TITLEJA:ヒバナ
|
||||
SUBTITLE:--DECO*27 feat. Hatsune Miku
|
||||
SUBTITLEJA:DECO*27
|
||||
BPM:200
|
||||
WAVE:Hibana.ogg
|
||||
OFFSET:-1.412
|
||||
DEMOSTART:46.868
|
||||
|
||||
COURSE:Edit
|
||||
LEVEL:10
|
||||
SCOREINIT:430
|
||||
SCOREDIFF:90
|
||||
|
||||
|
||||
#START
|
||||
|
||||
|
||||
111111,
|
||||
101010100200,
|
||||
1111101111101212,
|
||||
1111101111101212,
|
||||
1111211121112111,
|
||||
20040040,
|
||||
|
||||
#GOGOSTART
|
||||
1020201120201121,
|
||||
2011201020112010,
|
||||
1020201120201121,
|
||||
2011201022112222,
|
||||
1020201120201121,
|
||||
2011201020112010,
|
||||
2211102211102211,
|
||||
1012121020102010,
|
||||
|
||||
#GOGOEND
|
||||
2020001110101010,
|
||||
2020001110101010,
|
||||
2020001110101010,
|
||||
2020001022222000,
|
||||
3030002220202020,
|
||||
3030002220202020,
|
||||
3030001120102010,
|
||||
22020220,
|
||||
3020102210201022,
|
||||
1220102012201222,
|
||||
1020102210201012,
|
||||
1210102012201222,
|
||||
1020102210201022,
|
||||
1220102012201222,
|
||||
1022102210221220,
|
||||
1220122022122020,
|
||||
3022202010202011,
|
||||
2011202210202010,
|
||||
3022202010202011,
|
||||
2011202210202010,
|
||||
2010201120112010,
|
||||
2010201120112010,
|
||||
20230230,
|
||||
0000000022222222,
|
||||
|
||||
#GOGOSTART
|
||||
1011201120112011,
|
||||
2110211021102000,
|
||||
2011201020112012,
|
||||
1210222210102222,
|
||||
1011201120112011,
|
||||
2110211021102000,
|
||||
1011201210112012,
|
||||
1210222210112000,
|
||||
1324,
|
||||
1000300020004011,
|
||||
2011201120112030,
|
||||
0022102012221222,
|
||||
1324,
|
||||
10302041,
|
||||
0011201210112030,
|
||||
02222030,
|
||||
|
||||
#GOGOEND
|
||||
#MEASURE 8/4
|
||||
#SCROLL 0.5
|
||||
10102000102010112020001020002000,
|
||||
10102000102010102020001120000000,
|
||||
10102000102010112020001020002000,
|
||||
10102000102010102000101022222020,
|
||||
#MEASURE 4/4
|
||||
,
|
||||
#SCROLL 1
|
||||
3030201020221030,
|
||||
0030002010102220,
|
||||
3030201020221012,
|
||||
1012102010102220,
|
||||
1111111111111111,
|
||||
1111111111111110,
|
||||
30232030,
|
||||
2222,
|
||||
30030030,
|
||||
,
|
||||
|
||||
#GOGOSTART
|
||||
1000100010111010,
|
||||
1011101010112110,
|
||||
1011101010111010,
|
||||
1011101010111211,
|
||||
1000100010111010,
|
||||
1011101010112110,
|
||||
1011101010111010,
|
||||
1011101010111211,
|
||||
1020112010201120,
|
||||
1022112010221220,
|
||||
1020112010201120,
|
||||
1020122210201212,
|
||||
1020112010201120,
|
||||
1022112010221220,
|
||||
1111111111111111,
|
||||
111111111000
|
||||
|
||||
#GOGOEND
|
||||
4000,
|
||||
|
||||
#GOGOSTART
|
||||
1011201120112011,
|
||||
2110211021102000,
|
||||
2011201020112012,
|
||||
1210222210102222,
|
||||
1011201120112011,
|
||||
2110211021102000,
|
||||
1011201210112012,
|
||||
1210222210102222,
|
||||
1324,
|
||||
1000300020004011,
|
||||
2011201120112030,
|
||||
0022102012221222,
|
||||
1324,
|
||||
10302043,
|
||||
0011201210112010,
|
||||
0020222210102222,
|
||||
10401140,
|
||||
1000400010104011,
|
||||
2011201120112030,
|
||||
0022102012221212,
|
||||
1020112010201210,
|
||||
1020112010201210,
|
||||
|
||||
#GOGOEND
|
||||
,
|
||||
02,
|
||||
|
||||
|
||||
#END
|
||||
|
||||
|
||||
COURSE:Oni
|
||||
LEVEL:8
|
||||
BALLOON:15
|
||||
SCOREINIT:340
|
||||
SCOREDIFF:100
|
||||
|
||||
|
||||
#START
|
||||
|
||||
|
||||
,
|
||||
,
|
||||
3011103011103000,
|
||||
3011103011103000,
|
||||
1110111011101110,
|
||||
30030030,
|
||||
|
||||
#GOGOSTART
|
||||
1011101020200020,
|
||||
2010201022201000,
|
||||
1011101020200020,
|
||||
2010201020111000,
|
||||
1011101020200020,
|
||||
2010201022201000,
|
||||
1110101020102000,
|
||||
1110111020202000,
|
||||
|
||||
#GOGOEND
|
||||
30010110,
|
||||
20020220,
|
||||
10010110,
|
||||
20020220,
|
||||
33020220,
|
||||
33020220,
|
||||
1010101011101110,
|
||||
22020220,
|
||||
30201120,
|
||||
1000200011102020,
|
||||
10201120,
|
||||
1000200011102020,
|
||||
10201120,
|
||||
10201120,
|
||||
1010101020102011,
|
||||
1010101020102011,
|
||||
1010200011102030,
|
||||
0030001120102000,
|
||||
3010200011102030,
|
||||
0030001120102000,
|
||||
2000200020112010,
|
||||
2000200020112010,
|
||||
40040040,
|
||||
,
|
||||
|
||||
#GOGOSTART
|
||||
1000200011102010,
|
||||
0020202011102000,
|
||||
1110202011102010,
|
||||
0020202010002222,
|
||||
1000200011102010,
|
||||
0020202011102000,
|
||||
1110202011102010,
|
||||
0020202010002222,
|
||||
1122,
|
||||
10102025,
|
||||
000000000000000000000000000000000008000000300000,
|
||||
0020202210112000,
|
||||
3344,
|
||||
30304047,
|
||||
,
|
||||
0008,
|
||||
|
||||
#GOGOEND
|
||||
#MEASURE 8/4
|
||||
#SCROLL 0.5
|
||||
1120111120112020,
|
||||
1120111120002000,
|
||||
1120111120112020,
|
||||
1120111120002021,
|
||||
#MEASURE 4/4
|
||||
,
|
||||
#SCROLL 1
|
||||
3010200011102030,
|
||||
03021120,
|
||||
3010200011102030,
|
||||
03021120,
|
||||
1110101011101010,
|
||||
1110111011101110,
|
||||
30030030,
|
||||
2222,
|
||||
30030030,
|
||||
,
|
||||
|
||||
#GOGOSTART
|
||||
10101011,
|
||||
1011101010002000,
|
||||
10101011,
|
||||
1011101010002000,
|
||||
1000100010111010,
|
||||
1011101010002000,
|
||||
1000100010111010,
|
||||
1011101010002000,
|
||||
1020102011201020,
|
||||
1020102011201020,
|
||||
1020112010201120,
|
||||
1020112010112000,
|
||||
1020102011201020,
|
||||
1020102011201020,
|
||||
1020112010201120,
|
||||
111011111000
|
||||
|
||||
#GOGOEND
|
||||
2000,
|
||||
|
||||
#GOGOSTART
|
||||
1000200011102010,
|
||||
0020202011102000,
|
||||
1110201011102010,
|
||||
0020202010002222,
|
||||
1000200011102010,
|
||||
0020202011102000,
|
||||
1110201011102010,
|
||||
0020202010002222,
|
||||
1122,
|
||||
10102025,
|
||||
000000000000000000000000000000000008000000300000,
|
||||
0020202210112000,
|
||||
3344,
|
||||
30304046,
|
||||
,
|
||||
000000000000000000000008000000000000200000000000,
|
||||
1212,
|
||||
10201025,
|
||||
000000000000000000000000000000000008000000300000,
|
||||
0020202210112000,
|
||||
3434,
|
||||
3434,
|
||||
|
||||
#GOGOEND
|
||||
,
|
||||
02,
|
||||
|
||||
|
||||
#END
|
||||
|
||||
|
||||
COURSE:Hard
|
||||
LEVEL:6
|
||||
BALLOON:12
|
||||
SCOREINIT:410
|
||||
SCOREDIFF:100
|
||||
|
||||
|
||||
#START
|
||||
|
||||
|
||||
,
|
||||
,
|
||||
30030030,
|
||||
30030030,
|
||||
3333,
|
||||
30030030,
|
||||
|
||||
#GOGOSTART
|
||||
11102202,
|
||||
20102210,
|
||||
11102202,
|
||||
2121,
|
||||
11102202,
|
||||
20102210,
|
||||
11112020,
|
||||
11112220,//14
|
||||
|
||||
#GOGOEND
|
||||
30010010,
|
||||
20020020,
|
||||
10010010,
|
||||
20020020,
|
||||
33020220,
|
||||
33020220,
|
||||
11111110,
|
||||
22020220,
|
||||
3212,
|
||||
10201022,
|
||||
1212,
|
||||
10201022,
|
||||
1212,
|
||||
1210,
|
||||
11111120,
|
||||
11112220,
|
||||
30202203,
|
||||
03002020,
|
||||
30202203,
|
||||
03002020,
|
||||
10101210,
|
||||
10101210,
|
||||
30030030,
|
||||
,//38
|
||||
|
||||
#GOGOSTART
|
||||
10101021,
|
||||
02221020,
|
||||
11221021,
|
||||
02221000,
|
||||
10101021,
|
||||
02221020,
|
||||
11221021,
|
||||
02221020,
|
||||
1122,
|
||||
10102025,
|
||||
000000000000000000000000000000000008000000300000,
|
||||
02221020,
|
||||
3344,
|
||||
30304047,
|
||||
,
|
||||
08,//54
|
||||
|
||||
#MEASURE 8/4
|
||||
#SCROLL 0.5
|
||||
#GOGOEND
|
||||
1110101110002020,
|
||||
1110101110002000,
|
||||
1110101110002020,
|
||||
1110101110002020,
|
||||
#MEASURE 4/4
|
||||
,
|
||||
#SCROLL 1
|
||||
30202203,
|
||||
03002020,
|
||||
30202203,
|
||||
03002020,
|
||||
1111,
|
||||
1111,
|
||||
30030030,
|
||||
,
|
||||
30030030,
|
||||
,//69
|
||||
|
||||
#GOGOSTART
|
||||
10101011,
|
||||
10111020,
|
||||
10101011,
|
||||
10111000,
|
||||
10101011,
|
||||
10111020,
|
||||
10101011,
|
||||
10111020,
|
||||
12121210,
|
||||
12121210,
|
||||
10101021,
|
||||
02221020,
|
||||
12121210,
|
||||
12121216,
|
||||
,
|
||||
000000000000000000000008000000000000//85-1
|
||||
|
||||
#GOGOEND
|
||||
000000000000,//85-2
|
||||
|
||||
#GOGOSTART
|
||||
10201121,
|
||||
02221020,
|
||||
11211021,
|
||||
02221020,
|
||||
10201121,
|
||||
02221020,
|
||||
11211021,
|
||||
02221020,
|
||||
1122,
|
||||
10102025,
|
||||
000000000000000000000000000000000008000000300000,
|
||||
02221020,
|
||||
3344,
|
||||
30304046,
|
||||
,
|
||||
000000000000000000000008000000000000200000000000,
|
||||
1212,
|
||||
10201025,
|
||||
000000000000000000000000000000000008000000300000,
|
||||
02221020,
|
||||
3434,
|
||||
3434,//107
|
||||
|
||||
#GOGOEND
|
||||
,
|
||||
02,
|
||||
,
|
||||
#END
|
||||
|
||||
COURSE:Normal
|
||||
LEVEL:5
|
||||
BALLOON:8,8,8,9,8,8,8
|
||||
|
||||
#START
|
||||
,
|
||||
,
|
||||
3,
|
||||
3,
|
||||
3,
|
||||
30030030,//6
|
||||
|
||||
#GOGOSTART
|
||||
31,
|
||||
1110,
|
||||
11,
|
||||
1120,
|
||||
31,
|
||||
1110,
|
||||
11,
|
||||
1120,//14
|
||||
|
||||
#GOGOEND
|
||||
3,
|
||||
2,
|
||||
1,
|
||||
2,
|
||||
11000000,
|
||||
11000000,
|
||||
7,
|
||||
8,
|
||||
31,
|
||||
1120,
|
||||
11,
|
||||
1120,
|
||||
11,
|
||||
1120,
|
||||
1112,
|
||||
1112,
|
||||
30000003,
|
||||
03000000,
|
||||
30000003,
|
||||
03000000,
|
||||
1111,
|
||||
1111,
|
||||
30030030,
|
||||
,//38
|
||||
|
||||
#GOGOSTART
|
||||
10101001,
|
||||
0222,
|
||||
10101001,
|
||||
0220,
|
||||
10101001,
|
||||
0222,
|
||||
10101001,
|
||||
0220,
|
||||
1111,
|
||||
20202027,
|
||||
,
|
||||
8,
|
||||
3333,
|
||||
40404047,
|
||||
,
|
||||
08,//54
|
||||
|
||||
#MEASURE 8/4
|
||||
#SCROLL 0.5
|
||||
#GOGOEND
|
||||
11002020,
|
||||
11002020,
|
||||
11002020,
|
||||
11002020,
|
||||
#MEASURE 4/4
|
||||
,
|
||||
#SCROLL 1
|
||||
30000003,
|
||||
03000000,
|
||||
30000003,
|
||||
03000000,
|
||||
1111,
|
||||
1111,
|
||||
30030030,
|
||||
,
|
||||
30030030,
|
||||
,//69
|
||||
|
||||
#GOGOSTART
|
||||
1110,
|
||||
1110,
|
||||
1111,
|
||||
1120,
|
||||
1110,
|
||||
1110,
|
||||
1111,
|
||||
1120,
|
||||
1111,
|
||||
20202027,
|
||||
,
|
||||
8,
|
||||
3333,
|
||||
40404046,
|
||||
,
|
||||
000000000000000000000008000000000000//85-1
|
||||
|
||||
#GOGOEND
|
||||
000000000000,//85-2
|
||||
|
||||
#GOGOSTART
|
||||
10101011,
|
||||
0222,
|
||||
10101011,
|
||||
0220,
|
||||
10101011,
|
||||
0222,
|
||||
10101011,
|
||||
0220,
|
||||
1111,
|
||||
20202027,
|
||||
,
|
||||
8,
|
||||
3333,
|
||||
40404046,
|
||||
,
|
||||
000000000000000000000008000000000000000000000000,
|
||||
1122,
|
||||
10102027,
|
||||
,
|
||||
8,
|
||||
3344,
|
||||
3344,//107
|
||||
|
||||
#GOGOEND
|
||||
,
|
||||
02,
|
||||
,
|
||||
#END
|
||||
|
||||
COURSE:Easy
|
||||
LEVEL:4
|
||||
BALLOON:6,6,7,6,7,7
|
||||
|
||||
#START
|
||||
,
|
||||
,
|
||||
3,
|
||||
3,
|
||||
3,
|
||||
30030030,//6
|
||||
|
||||
#GOGOSTART
|
||||
3,
|
||||
1,
|
||||
1,
|
||||
1,
|
||||
3,
|
||||
1,
|
||||
1,
|
||||
1,//14
|
||||
|
||||
#GOGOEND
|
||||
3,
|
||||
,
|
||||
1,
|
||||
,
|
||||
1,
|
||||
1,
|
||||
7,
|
||||
8,
|
||||
3,
|
||||
1,
|
||||
1,
|
||||
2,
|
||||
1,
|
||||
1,
|
||||
1,
|
||||
2,
|
||||
30000003,
|
||||
,
|
||||
30000003,
|
||||
,
|
||||
11,
|
||||
11,
|
||||
30030030,
|
||||
,//38
|
||||
|
||||
#GOGOSTART
|
||||
10101001,
|
||||
,
|
||||
10101001,
|
||||
,
|
||||
10101001,
|
||||
,
|
||||
10101001,
|
||||
,
|
||||
1111,
|
||||
10101017,
|
||||
,
|
||||
8,
|
||||
3333,
|
||||
30303037,
|
||||
,
|
||||
08,//54
|
||||
|
||||
#MEASURE 8/4
|
||||
#SCROLL 0.5
|
||||
#GOGOEND
|
||||
1002,
|
||||
1002,
|
||||
1002,
|
||||
1002,
|
||||
#MEASURE 4/4
|
||||
,
|
||||
#SCROLL 1
|
||||
30000003,
|
||||
,
|
||||
30000003,
|
||||
,
|
||||
11,
|
||||
11,
|
||||
30030030,
|
||||
,
|
||||
30030030,
|
||||
,//69
|
||||
|
||||
#GOGOSTART
|
||||
1110,
|
||||
1110,
|
||||
11,
|
||||
1110,
|
||||
1110,
|
||||
1110,
|
||||
11,
|
||||
1110,
|
||||
1111,
|
||||
10101017,
|
||||
,
|
||||
8,
|
||||
3333,
|
||||
30303036,
|
||||
,
|
||||
000000000000000000000008000000000000//85-1
|
||||
|
||||
#GOGOEND
|
||||
000000000000,//85-2
|
||||
|
||||
#GOGOSTART
|
||||
10101001,
|
||||
02,
|
||||
10101001,
|
||||
02,
|
||||
10101001,
|
||||
02,
|
||||
10101001,
|
||||
02,
|
||||
1111,
|
||||
10101017,
|
||||
,
|
||||
8,
|
||||
3333,
|
||||
30303036,
|
||||
,
|
||||
000000000000000000000008000000000000000000000000,
|
||||
1111,
|
||||
20202027,
|
||||
,
|
||||
8,
|
||||
3333,
|
||||
4444,//107
|
||||
|
||||
#GOGOEND
|
||||
,
|
||||
02,
|
||||
,
|
||||
#END
|
||||
Reference in New Issue
Block a user