tja
This commit is contained in:
540
tja/736.tja
Normal file
540
tja/736.tja
Normal file
@@ -0,0 +1,540 @@
|
||||
//TJADB Project
|
||||
TITLE:Hito no Okane de Yakiniku o Shokushitai!
|
||||
TITLEJA:人のお金で焼肉を食したい!
|
||||
SUBTITLE:--INSPION × BANDAI NAMCO
|
||||
SUBTITLEJA:INSPIONスペシャルコラボ
|
||||
BPM:148
|
||||
WAVE:Hito no Okane de Yakiniku o Shokushitai!.ogg
|
||||
OFFSET:-1.795
|
||||
DEMOSTART:29.271
|
||||
|
||||
COURSE:Edit
|
||||
LEVEL:10
|
||||
BALLOON:3,3,3,18,3,3,3
|
||||
SCOREINIT:400
|
||||
SCOREDIFF:95
|
||||
|
||||
|
||||
#START
|
||||
|
||||
|
||||
30000001,
|
||||
000111200000000000000000,
|
||||
20000002,
|
||||
00000004,
|
||||
00222111,
|
||||
000111200000000000000300,
|
||||
11111111,
|
||||
200200100100101010200200100100101010200200000000,
|
||||
202020101010101010202020101010101010200200000000,//9
|
||||
|
||||
#GOGOSTART
|
||||
400000100100100100200000200100200000100000101010,
|
||||
200000100100200000200000101010200000200000500000,
|
||||
000000000000000000000008000000400000200000100000,
|
||||
200200201010200200201010200200201010200200201010,
|
||||
200000100100100100200000100000200100200000101010,
|
||||
200000100100200000200000101010200000200000700000,
|
||||
800000200200100100700000800000101010100000700000,
|
||||
800100400211211211222111,//17
|
||||
|
||||
#GOGOEND
|
||||
1022001011201022,
|
||||
1120102201201022,
|
||||
1210201101201021,
|
||||
200100100000200000101010100200200000100200200000,
|
||||
1022001011201022,
|
||||
1120102201201000,
|
||||
300000100000100000100000100000101010100100100100,
|
||||
2022202010203000,
|
||||
1021201202112211,
|
||||
0120102111201020,
|
||||
1121201111211120,
|
||||
100000200100200100200000101010100000200000000000,
|
||||
3004002201201022,
|
||||
100100000100200000200000101010100000400000000000,
|
||||
600000000000000000000000000000000000000008000000,
|
||||
202020200200200200101010100100200100200200100000,//33
|
||||
|
||||
#GOGOSTART
|
||||
3001111012112010,
|
||||
1202120212021020,
|
||||
500000000000000000000008000000100000100000200000,
|
||||
000200100000200000100000101010100100200200200200,
|
||||
1011201202102012,
|
||||
1021201202102210,
|
||||
100000000100200000200000101010200000100000200000,
|
||||
000200100100200200100100202020100100200200200200,
|
||||
1001111012112010,
|
||||
1202120212021020,
|
||||
500000000000000000000008000000100000100000200000,
|
||||
0210201122102211,
|
||||
1011201202102012,
|
||||
1021201202102210,
|
||||
201010100100200100201010100100200200200000300000,
|
||||
2201102201102200,//49
|
||||
|
||||
#GOGOEND
|
||||
200200000100101010200200000100101010200200000000,//50
|
||||
|
||||
#GOGOSTART
|
||||
1011211020112110,
|
||||
1011211020112110,
|
||||
1022222010210210,
|
||||
1022221012210210,
|
||||
1111222010121110,
|
||||
1111222010121110,
|
||||
1122122010121110,
|
||||
200200100100200200100100202020200200100100100100,
|
||||
2001201021012020,
|
||||
1011112011212020,
|
||||
1111202101202120,
|
||||
100100100100200000200100000100200000101010200000,
|
||||
3001201021012020,
|
||||
1011212011212210,
|
||||
000200100100100100200000000000101010100000400000,
|
||||
000200100000100000400000000000202020100000400000,
|
||||
110110110111211211211211,//67
|
||||
|
||||
#GOGOEND
|
||||
2,//68
|
||||
|
||||
#GOGOSTART
|
||||
70000008,
|
||||
200000100100200000200000101010200000200000500000,
|
||||
000000000000000000000008000000400000200000100000,
|
||||
222111222111222111222111,
|
||||
200000100100100100200000100000200100200000101010,
|
||||
200000100100200000200000101010200000200000700000,
|
||||
800000200200100100700000800000101010100000700000,
|
||||
800100400211211211222100,
|
||||
0011200200102210,//77
|
||||
|
||||
#GOGOEND
|
||||
2222220010201021,
|
||||
000011200000000000000000,
|
||||
|
||||
|
||||
#END
|
||||
|
||||
|
||||
COURSE:Oni
|
||||
LEVEL:7
|
||||
BALLOON:19,16
|
||||
SCOREINIT:550
|
||||
SCOREDIFF:138
|
||||
|
||||
|
||||
#START
|
||||
|
||||
|
||||
30000001,
|
||||
0200,
|
||||
20000002,
|
||||
00000004,
|
||||
00221221,
|
||||
01200007,
|
||||
00000008,
|
||||
2201102201102200,
|
||||
2201102201102200,//9
|
||||
|
||||
#GOGOSTART
|
||||
3011101020201000,
|
||||
1011201000202050,
|
||||
000000000000000000000008000000400000200000100000,
|
||||
2210221022102210,
|
||||
3011101020221000,
|
||||
1011201000202030,
|
||||
0022112000202030,
|
||||
000000200000600000000000000000000000000008000000,//17
|
||||
|
||||
#GOGOEND
|
||||
3022001011200020,
|
||||
1120102000201020,
|
||||
1120102000201022,
|
||||
1120102000202210,
|
||||
1022001011200020,
|
||||
1120102000201000,
|
||||
500000000000000000000000000000000000000000000008,
|
||||
0022202020203000,
|
||||
3010201200222010,
|
||||
0022102000221020,
|
||||
1022201000221020,
|
||||
1022201000102000,
|
||||
3004000000221020,
|
||||
00200340,
|
||||
600000000000000000000000000000000000000008000000,
|
||||
3011104000304000,//33
|
||||
|
||||
#GOGOSTART
|
||||
3000201022102000,
|
||||
2000201022102000,
|
||||
500000000000000000000008000000200000200000300000,
|
||||
0010200011102220,
|
||||
1010202100221020,
|
||||
1010202100221020,
|
||||
1110201000222050,
|
||||
000000000008000000200200500000000008000000000000,
|
||||
3000201021102000,
|
||||
2000201021102000,
|
||||
500000000000000000000008000000200000200000300000,
|
||||
0010200011102222,
|
||||
1010202100221020,
|
||||
1010202100221020,
|
||||
3000304000111060,
|
||||
000000000000000000000000000000000000000008000000,//49
|
||||
|
||||
#GOGOEND
|
||||
02212212,//50
|
||||
|
||||
#GOGOSTART
|
||||
3000111020002210,
|
||||
2011102000221020,
|
||||
0011201000221020,
|
||||
0011202000200020,
|
||||
1000111020002210,
|
||||
2011102000221020,
|
||||
0011201000221020,
|
||||
0011202000200020,
|
||||
1000211020002210,
|
||||
2022102000221020,
|
||||
0011201000221020,
|
||||
0011202000200020,
|
||||
1000211020002210,
|
||||
2022102000112030,
|
||||
0022221000112030,
|
||||
00230406,
|
||||
000008000000600000000000000000000000000000008000,//67
|
||||
|
||||
#GOGOEND
|
||||
02212212,//68
|
||||
|
||||
#GOGOSTART
|
||||
70000008,
|
||||
1011201000202050,
|
||||
000000000000000000000008000000400000200000100000,
|
||||
2210221022102210,
|
||||
3011101020221000,
|
||||
1011201000202030,
|
||||
0022112000202030,
|
||||
000000200000600000000000000000000008000000300000,
|
||||
0011200000000000,//77
|
||||
|
||||
#GOGOEND
|
||||
2222220020202021,
|
||||
0400,
|
||||
|
||||
|
||||
#END
|
||||
|
||||
|
||||
COURSE:Hard
|
||||
LEVEL:6
|
||||
BALLOON:15,13
|
||||
SCOREINIT:410
|
||||
SCOREDIFF:120
|
||||
|
||||
#START
|
||||
30000001,
|
||||
0200,
|
||||
20000002,
|
||||
00000004,
|
||||
00222221,
|
||||
00200007,
|
||||
00000008,
|
||||
2200002200002200,
|
||||
2200002200002200,//9
|
||||
|
||||
#GOGOSTART
|
||||
31112220,
|
||||
10120225,
|
||||
000000000000000000000008000000400000000000000000,
|
||||
1110111011101110,
|
||||
31112220,
|
||||
10120224,
|
||||
0011111000101030,
|
||||
01300000,//17
|
||||
|
||||
#GOGOEND
|
||||
1011001010200020,
|
||||
1110101000002020,
|
||||
1110101000202020,
|
||||
1110101000200020,
|
||||
1011001010200020,
|
||||
1110101000002000,
|
||||
500000000000000000000000000000000000000000000008,
|
||||
0022202020203000,
|
||||
1010101100202020,
|
||||
01120022,
|
||||
1011101000202020,
|
||||
1011101000102000,
|
||||
3003000000202010,
|
||||
00200330,
|
||||
600000000000000000000000000000000000000008000000,
|
||||
30040440,//33
|
||||
|
||||
#GOGOSTART
|
||||
3000100011102000,
|
||||
1000200011102000,
|
||||
500000000000000000000008000000100000100000100000,
|
||||
0000200011102000,
|
||||
1010202200200020,
|
||||
1010202200200010,
|
||||
10220115,
|
||||
000000000008000000100100100000000000000000000000,
|
||||
3000200011102000,
|
||||
1000200011102000,
|
||||
500000000000000000000008000000100000100000100000,
|
||||
0020000020202220,
|
||||
1010202200200020,
|
||||
1010202200200010,
|
||||
3000404000111060,
|
||||
000000000000000000000000000000000000000008000000,//49
|
||||
|
||||
#GOGOEND
|
||||
,//50
|
||||
|
||||
#GOGOSTART
|
||||
3000111020001010,
|
||||
0011102000101010,
|
||||
0011101000111010,
|
||||
0022202000200020,
|
||||
1000111020001010,
|
||||
0011102000101010,
|
||||
0011101000111010,
|
||||
0022202000200020,
|
||||
1000111020001010,
|
||||
0011102000101010,
|
||||
0011101000111010,
|
||||
0022202000200020,
|
||||
1000111020001010,
|
||||
0011102000101030,
|
||||
0011111000101030,
|
||||
00240406,
|
||||
000008000000600000000000000000000000000000008000,//67
|
||||
|
||||
#GOGOEND
|
||||
,//68
|
||||
|
||||
#GOGOSTART
|
||||
70000008,
|
||||
10120225,
|
||||
000000000000000000000008000000400000000000000000,
|
||||
1110111011101110,
|
||||
31112220,
|
||||
10120113,
|
||||
0011111000202040,
|
||||
000000100000600000000000000000000008000000300000,
|
||||
0400,//77
|
||||
|
||||
#GOGOEND
|
||||
1111110010101011,
|
||||
0400,
|
||||
,
|
||||
#END
|
||||
|
||||
COURSE:Normal
|
||||
LEVEL:5
|
||||
BALLOON:18,7
|
||||
|
||||
#START
|
||||
3,
|
||||
,
|
||||
2,
|
||||
00000004,
|
||||
,
|
||||
00000009,
|
||||
,
|
||||
0009,
|
||||
8,//9
|
||||
|
||||
#GOGOSTART
|
||||
11102220,
|
||||
10110225,
|
||||
000000000000000000000008000000400000000000000000,
|
||||
3333,
|
||||
11102220,
|
||||
10110224,
|
||||
01130224,
|
||||
01300000,//17
|
||||
|
||||
#GOGOEND
|
||||
30000001,
|
||||
10220010,
|
||||
10110220,
|
||||
10020000,
|
||||
30000001,
|
||||
10220020,
|
||||
500000000000000000000000000000000000000000000008,
|
||||
0003,
|
||||
10200222,
|
||||
00020011,
|
||||
10110220,
|
||||
10220020,
|
||||
3003000000202010,
|
||||
00200330,
|
||||
600000000000000000000000000000000008000000000000,
|
||||
30040440,//33
|
||||
|
||||
#GOGOSTART
|
||||
3012,
|
||||
1212,
|
||||
500000000000000000000008000000100000100000100000,
|
||||
0012,
|
||||
11220200,
|
||||
11220200,
|
||||
10110225,
|
||||
000000000000000008000000200000000000000000000000,
|
||||
3012,
|
||||
1212,
|
||||
500000000000000000000008000000100000100000100000,
|
||||
02000000,
|
||||
11220200,
|
||||
11220200,
|
||||
30440336,
|
||||
000000000000000000000000000000000000000008000000,//49
|
||||
|
||||
#GOGOEND
|
||||
,//50
|
||||
|
||||
#GOGOSTART
|
||||
00202011,
|
||||
00220111,
|
||||
00220111,
|
||||
00220202,
|
||||
00202011,
|
||||
00220111,
|
||||
00220111,
|
||||
00220202,
|
||||
00202011,
|
||||
00220111,
|
||||
00220111,
|
||||
00220202,
|
||||
00202011,
|
||||
00220111,
|
||||
00220111,
|
||||
00120306,
|
||||
000000000000000000000000000000000000000000008000,//67
|
||||
|
||||
#GOGOEND
|
||||
,//68
|
||||
|
||||
#GOGOSTART
|
||||
70000008,
|
||||
10120225,
|
||||
000000000000000000000008000000400000000000000000,
|
||||
3333,
|
||||
11102220,
|
||||
10120224,
|
||||
01130224,
|
||||
01300003,
|
||||
0400,//77
|
||||
|
||||
#GOGOEND
|
||||
,
|
||||
0400,
|
||||
,
|
||||
#END
|
||||
|
||||
COURSE:Easy
|
||||
LEVEL:3
|
||||
BALLOON:15,12,5,11,5,13,6,6,6,20,20
|
||||
|
||||
#START
|
||||
3,
|
||||
,
|
||||
1,
|
||||
00000003,
|
||||
,
|
||||
00000009,
|
||||
,
|
||||
09,
|
||||
8,//9
|
||||
|
||||
#GOGOSTART
|
||||
32,
|
||||
10000005,
|
||||
000000000000000000000000000008000000000000000000,
|
||||
3333,
|
||||
32,
|
||||
10000007,
|
||||
,
|
||||
0008,//17
|
||||
|
||||
#GOGOEND
|
||||
3,
|
||||
1,
|
||||
1100,
|
||||
1,
|
||||
3,
|
||||
1,
|
||||
500000000000000000000000000000000000000000000008,
|
||||
0003,
|
||||
10100005,
|
||||
000000000000000008000000000000000000000000000000,
|
||||
1101,
|
||||
1100,
|
||||
30000005,
|
||||
000000000008000000000000000000000000300000000000,
|
||||
600000000000000000000000000000000000000000000008,
|
||||
,//33
|
||||
|
||||
#GOGOSTART
|
||||
31,
|
||||
1111,
|
||||
500000000000000000000008000000000000000000700000,
|
||||
08,
|
||||
1100,
|
||||
2200,
|
||||
7,
|
||||
08,
|
||||
3011,
|
||||
1111,
|
||||
500000000000000000000008000000000000000000700000,
|
||||
08,
|
||||
1100,
|
||||
2200,
|
||||
9,
|
||||
00009008,//49
|
||||
|
||||
#GOGOEND
|
||||
,//50
|
||||
|
||||
#GOGOSTART
|
||||
00101015,
|
||||
000000000000000008000000000000000000100000500000,
|
||||
000000000008000000000000000000000000100000700000,
|
||||
0008,
|
||||
00101015,
|
||||
000000000000000008000000000000000000100000500000,
|
||||
000000000008000000000000000000000000100000700000,
|
||||
0008,
|
||||
00101015,
|
||||
000000000000000008000000000000000000100000500000,
|
||||
000000000008000000000000000000000000100000700000,
|
||||
0008,
|
||||
00101015,
|
||||
000000000000000008000000000000000000000000900000,
|
||||
,
|
||||
,
|
||||
0900,//67
|
||||
|
||||
#GOGOEND
|
||||
8,//68
|
||||
|
||||
#GOGOSTART
|
||||
32,
|
||||
10000005,
|
||||
000000000000000000000000000008000000000000000000,
|
||||
3333,
|
||||
32,
|
||||
10000009,
|
||||
,
|
||||
,
|
||||
0900,//77
|
||||
|
||||
#GOGOEND
|
||||
8,
|
||||
0300,
|
||||
,
|
||||
#END
|
||||
Reference in New Issue
Block a user