tja
This commit is contained in:
538
tja/746.tja
Normal file
538
tja/746.tja
Normal file
@@ -0,0 +1,538 @@
|
||||
//TJADB Project
|
||||
TITLE:Magical Parfait
|
||||
TITLEJA:マジカル・パフェ
|
||||
SUBTITLE:--Maya
|
||||
SUBTITLEJA:
|
||||
BPM:137
|
||||
WAVE:Magical Parfait.ogg
|
||||
OFFSET:-3.494
|
||||
DEMOSTART:14.003
|
||||
|
||||
//shinuchi: 7220/4660/2430/1510
|
||||
|
||||
COURSE:Oni
|
||||
LEVEL:9
|
||||
BALLOON:18
|
||||
SCOREINIT:510,1540
|
||||
SCOREDIFF:133
|
||||
|
||||
#START
|
||||
0220000002100000,
|
||||
0220000002100000,
|
||||
1222020202101022,
|
||||
1222020202102211,
|
||||
1222020202101022,
|
||||
1202020202020202, //6
|
||||
|
||||
#GOGOSTART
|
||||
1222020122012020,
|
||||
2221010202102220,
|
||||
1222020122012020,
|
||||
2221010202102220,
|
||||
#GOGOEND
|
||||
|
||||
1022202220222100,
|
||||
1222022202222102,
|
||||
1022202220222100,
|
||||
1222022202222102, //14
|
||||
|
||||
#GOGOSTART
|
||||
1222020122012020,
|
||||
2221010202102220,
|
||||
1222020122012020,
|
||||
2221010202102220,
|
||||
#GOGOEND
|
||||
|
||||
1002002002022002,
|
||||
1020020220020020,
|
||||
1202200210200202,
|
||||
1002102012021122,
|
||||
0,
|
||||
7008, //24
|
||||
|
||||
1101211201012112,
|
||||
2112001101221202,
|
||||
1102011001221221,
|
||||
2211201101122112,
|
||||
|
||||
1101211201012112,
|
||||
2112001101222112,
|
||||
1101211201221221,
|
||||
2211011101121112, //32
|
||||
|
||||
1100400201012112,
|
||||
2112001002011002,
|
||||
0010400201012112,
|
||||
2112002101201122,
|
||||
|
||||
1100400201012112,
|
||||
2112001002011002,
|
||||
0010400201012112,
|
||||
1120000000101112, //40
|
||||
|
||||
#GOGOSTART
|
||||
1222020122012020,
|
||||
2221010202102220,
|
||||
1222020122012020,
|
||||
2221010202102220,
|
||||
#GOGOEND
|
||||
|
||||
10000002,
|
||||
000100100100000200000100000200000100202020200000,
|
||||
#GOGOSTART
|
||||
1222020122012020,
|
||||
2221010202102220, //48
|
||||
#GOGOEND
|
||||
|
||||
1021021020221021,
|
||||
0210002210210210,
|
||||
2022102102100022,
|
||||
111
|
||||
#SCROLL 1.2
|
||||
2
|
||||
#SCROLL 1
|
||||
111
|
||||
#SCROLL 1.2
|
||||
22
|
||||
#SCROLL 1
|
||||
111
|
||||
#SCROLL 1.2
|
||||
2
|
||||
#SCROLL 1
|
||||
111, //52
|
||||
|
||||
#GOGOSTART
|
||||
1222020122012020,
|
||||
2221010202102220,
|
||||
1222020122012020,
|
||||
2221010202102220,
|
||||
|
||||
1211202111021121,
|
||||
1221112212010122,
|
||||
1211202111021121,
|
||||
1221121222211112, //60
|
||||
#GOGOEND
|
||||
|
||||
#BARLINEOFF
|
||||
#MEASURE 1/16
|
||||
#BPMCHANGE 12.1
|
||||
#SCROLL 11.32
|
||||
0, //61
|
||||
#MEASURE 1/4
|
||||
#BPMCHANGE 137
|
||||
#SCROLL 1
|
||||
111111, //62
|
||||
|
||||
#BARLINEON
|
||||
#MEASURE 2/4
|
||||
#BPMCHANGE 132.5
|
||||
#SCROLL 1.03
|
||||
2001, //63
|
||||
#BARLINEOFF
|
||||
#MEASURE 1/16
|
||||
#BPMCHANGE 8.15
|
||||
#SCROLL 16.81
|
||||
0, //64
|
||||
|
||||
#BARLINEON
|
||||
#MEASURE 4/4
|
||||
#BPMCHANGE 237
|
||||
#SCROLL 0.7
|
||||
1121121121121120, //65
|
||||
#BARLINEOFF
|
||||
#BPMCHANGE 8.15
|
||||
#SCROLL 16.81
|
||||
0, //66
|
||||
#END
|
||||
|
||||
|
||||
COURSE:Hard
|
||||
LEVEL:8
|
||||
BALLOON:14,10
|
||||
SCOREINIT:690,2510
|
||||
SCOREDIFF:190
|
||||
|
||||
#START
|
||||
0020022000000000,
|
||||
0020022000000000,
|
||||
1020022010000000,
|
||||
3,
|
||||
1020022010000000,
|
||||
1202020202022000, //6
|
||||
|
||||
#GOGOSTART
|
||||
1111000012001000,
|
||||
2222000021002000,
|
||||
1111000012001000,
|
||||
2222000021002000,
|
||||
#GOGOEND
|
||||
|
||||
1022202020202000,
|
||||
1222020202022000,
|
||||
1022202020202000,
|
||||
1222020202022000, //14
|
||||
|
||||
#GOGOSTART
|
||||
1111000012001000,
|
||||
2222000021002000,
|
||||
1111000012001000,
|
||||
2222000021002000,
|
||||
#GOGOEND
|
||||
|
||||
1002002002002002,
|
||||
1020020020020020,
|
||||
1200200200200200,
|
||||
1002002002003000,
|
||||
0,
|
||||
7008, //24
|
||||
|
||||
1100200001011000,
|
||||
1111200001011000,
|
||||
1100200001111000,
|
||||
2222000001111000,
|
||||
|
||||
1100200001011000,
|
||||
1111200001011000,
|
||||
1100200001111000,
|
||||
2222000001111000, //32
|
||||
|
||||
1100400001011000,
|
||||
2222002002001000,
|
||||
1100400001011000,
|
||||
2222000001101000,
|
||||
|
||||
1100400001011000,
|
||||
2222002002001000,
|
||||
1100400001011000,
|
||||
1110000000222000, //40
|
||||
|
||||
#GOGOSTART
|
||||
1111000012001000,
|
||||
2222000021002000,
|
||||
1111000012001000,
|
||||
2222000021002000,
|
||||
#GOGOEND
|
||||
|
||||
1,
|
||||
1111020220202000,
|
||||
#GOGOSTART
|
||||
1111000012001000,
|
||||
2222000021002000, //48
|
||||
#GOGOEND
|
||||
|
||||
1001001011001000,
|
||||
1222200010101000,
|
||||
1001001011001000,
|
||||
#SCROLL 1.1
|
||||
1110
|
||||
#SCROLL 1.15
|
||||
1110
|
||||
#SCROLL 1.2
|
||||
1110
|
||||
#SCROLL 1.25
|
||||
1110, //52
|
||||
|
||||
#SCROLL 1
|
||||
#GOGOSTART
|
||||
1111000012001000,
|
||||
2222000021002000,
|
||||
1111000012001000,
|
||||
2222000021002000,
|
||||
|
||||
1011102011001000,
|
||||
1222200020202000,
|
||||
1011102011001000,
|
||||
1110111011111111, //60
|
||||
#GOGOEND
|
||||
|
||||
#BARLINEOFF
|
||||
#MEASURE 1/16
|
||||
#BPMCHANGE 12.1
|
||||
#SCROLL 11.32
|
||||
0, //61
|
||||
#MEASURE 1/4
|
||||
#BPMCHANGE 137
|
||||
#SCROLL 1
|
||||
0, //62
|
||||
|
||||
#BARLINEON
|
||||
#MEASURE 2/4
|
||||
#BPMCHANGE 132.5
|
||||
#SCROLL 1.03
|
||||
2001, //63
|
||||
#BARLINEOFF
|
||||
#MEASURE 1/16
|
||||
#BPMCHANGE 8.15
|
||||
#SCROLL 16.81
|
||||
0, //64
|
||||
|
||||
#BARLINEON
|
||||
#MEASURE 4/4
|
||||
#BPMCHANGE 237
|
||||
#SCROLL 0.7
|
||||
700000000000000000000000000000000000000000080000, //65
|
||||
#BARLINEOFF
|
||||
#BPMCHANGE 8.15
|
||||
#SCROLL 16.81
|
||||
0, //66
|
||||
#END
|
||||
|
||||
|
||||
COURSE:Normal
|
||||
LEVEL:7
|
||||
BALLOON:8,8,8,6
|
||||
SCOREINIT:1020,4870
|
||||
SCOREDIFF:343
|
||||
|
||||
#START
|
||||
02000100,
|
||||
02000100,
|
||||
70000800,
|
||||
12,
|
||||
70000800,
|
||||
13, //6
|
||||
|
||||
#GOGOSTART
|
||||
1100000022000000,
|
||||
2200000011000000,
|
||||
1100000022000000,
|
||||
2200000011000000,
|
||||
#GOGOEND
|
||||
|
||||
1011100000000000,
|
||||
22200000,
|
||||
1011100000000000,
|
||||
22200000, //14
|
||||
|
||||
#GOGOSTART
|
||||
1100000022000000,
|
||||
2200000011000000,
|
||||
1100000022000000,
|
||||
2200000011000000,
|
||||
#GOGOEND
|
||||
|
||||
20002220,
|
||||
2240,
|
||||
20002220,
|
||||
2230,
|
||||
0,
|
||||
70000800, //24
|
||||
|
||||
10200011,
|
||||
1200,
|
||||
10200011,
|
||||
1200,
|
||||
|
||||
10200011,
|
||||
1200,
|
||||
10200011,
|
||||
1, //32
|
||||
|
||||
10200011,
|
||||
10200011,
|
||||
10200011,
|
||||
1400,
|
||||
|
||||
10200011,
|
||||
10200011,
|
||||
10200011,
|
||||
1, //40
|
||||
|
||||
#GOGOSTART
|
||||
1100000022000000,
|
||||
2200000011000000,
|
||||
1100000022000000,
|
||||
2200000011000000,
|
||||
#GOGOEND
|
||||
|
||||
1,
|
||||
00002220,
|
||||
#GOGOSTART
|
||||
1100000022000000,
|
||||
2200000011000000, //48
|
||||
#GOGOEND
|
||||
|
||||
10001110,
|
||||
22201110,
|
||||
10001110,
|
||||
11
|
||||
#SCROLL 1.05
|
||||
11
|
||||
#SCROLL 1.1
|
||||
11
|
||||
#SCROLL 1.15
|
||||
10, //52
|
||||
|
||||
#SCROLL 1
|
||||
#GOGOSTART
|
||||
1100000022000000,
|
||||
2200000011000000,
|
||||
1100000022000000,
|
||||
2200000011000000,
|
||||
|
||||
1011100020000000,
|
||||
22201000,
|
||||
1011100020000000,
|
||||
22201111, //60
|
||||
#GOGOEND
|
||||
|
||||
#BARLINEOFF
|
||||
#MEASURE 1/16
|
||||
#BPMCHANGE 12.1
|
||||
#SCROLL 11.32
|
||||
0, //61
|
||||
#MEASURE 1/4
|
||||
#BPMCHANGE 137
|
||||
#SCROLL 1
|
||||
0, //62
|
||||
|
||||
#BARLINEON
|
||||
#MEASURE 2/4
|
||||
#BPMCHANGE 132.5
|
||||
#SCROLL 1.03
|
||||
0001, //63
|
||||
#BARLINEOFF
|
||||
#MEASURE 1/16
|
||||
#BPMCHANGE 8.15
|
||||
#SCROLL 16.81
|
||||
0, //64
|
||||
|
||||
#BARLINEON
|
||||
#MEASURE 4/4
|
||||
#BPMCHANGE 237
|
||||
#SCROLL 0.7
|
||||
700000000000000000000000000000000000000000080000, //65
|
||||
#BARLINEOFF
|
||||
#BPMCHANGE 8.15
|
||||
#SCROLL 16.81
|
||||
0, //66
|
||||
#END
|
||||
|
||||
|
||||
COURSE:Easy
|
||||
LEVEL:4
|
||||
BALLOON:6,5,5
|
||||
SCOREINIT:800,7930
|
||||
SCOREDIFF:358
|
||||
|
||||
#START
|
||||
0,
|
||||
0,
|
||||
01,
|
||||
01,
|
||||
01,
|
||||
03, //6
|
||||
|
||||
#GOGOSTART
|
||||
11001000,
|
||||
22002000,
|
||||
11001000,
|
||||
22002000,
|
||||
#GOGOEND
|
||||
|
||||
1110,
|
||||
21,
|
||||
1110,
|
||||
23, //14
|
||||
|
||||
#GOGOSTART
|
||||
11001000,
|
||||
22002000,
|
||||
11001000,
|
||||
22002000,
|
||||
#GOGOEND
|
||||
|
||||
2220,
|
||||
22,
|
||||
2220,
|
||||
23,
|
||||
0,
|
||||
70000800, //24
|
||||
|
||||
0200,
|
||||
0200,
|
||||
0200,
|
||||
0400,
|
||||
|
||||
0200,
|
||||
0200,
|
||||
0200,
|
||||
0400, //32
|
||||
|
||||
1200,
|
||||
1200,
|
||||
1200,
|
||||
3,
|
||||
|
||||
1200,
|
||||
1200,
|
||||
1200,
|
||||
1, //40
|
||||
|
||||
#GOGOSTART
|
||||
11001000,
|
||||
22002000,
|
||||
11001000,
|
||||
22002000,
|
||||
#GOGOEND
|
||||
|
||||
1,
|
||||
78,
|
||||
#GOGOSTART
|
||||
11001000,
|
||||
22002000, //48
|
||||
#GOGOEND
|
||||
|
||||
2,
|
||||
22002000,
|
||||
22,
|
||||
1
|
||||
#SCROLL 1.1
|
||||
1
|
||||
#SCROLL 1.2
|
||||
10, //52
|
||||
|
||||
#SCROLL 1
|
||||
#GOGOSTART
|
||||
11001000,
|
||||
22002000,
|
||||
11001000,
|
||||
22002000,
|
||||
|
||||
11101000,
|
||||
22202000,
|
||||
11101000,
|
||||
3333, //60
|
||||
#GOGOEND
|
||||
|
||||
#BARLINEOFF
|
||||
#MEASURE 1/16
|
||||
#BPMCHANGE 12.1
|
||||
#SCROLL 11.32
|
||||
0, //61
|
||||
#MEASURE 1/4
|
||||
#BPMCHANGE 137
|
||||
#SCROLL 1
|
||||
0, //62
|
||||
|
||||
#BARLINEON
|
||||
#MEASURE 2/4
|
||||
#BPMCHANGE 132.5
|
||||
#SCROLL 1.03
|
||||
0, //63
|
||||
#BARLINEOFF
|
||||
#MEASURE 1/16
|
||||
#BPMCHANGE 8.15
|
||||
#SCROLL 16.81
|
||||
0, //64
|
||||
|
||||
#BARLINEON
|
||||
#MEASURE 4/4
|
||||
#BPMCHANGE 237
|
||||
#SCROLL 0.7
|
||||
700000000000000000000000000000000000000000080000, //65
|
||||
#BARLINEOFF
|
||||
#BPMCHANGE 8.15
|
||||
#SCROLL 16.81
|
||||
0, //66
|
||||
#END
|
||||
Reference in New Issue
Block a user