tja
This commit is contained in:
437
tja/750.tja
Normal file
437
tja/750.tja
Normal file
@@ -0,0 +1,437 @@
|
||||
//TJADB Project
|
||||
TITLE:CYBERgenicALICE
|
||||
TITLEJA:CYBERgenicALICE
|
||||
SUBTITLE:--Seifu Meigetsu [Drop × Yura Hatsuki]
|
||||
BPM:185
|
||||
WAVE:CYBERgenicALICE.ogg
|
||||
OFFSET:-1.500
|
||||
DEMOSTART:58.730
|
||||
|
||||
//shinuchi: 7240/4130/2580/1510
|
||||
|
||||
COURSE:Oni
|
||||
LEVEL:9
|
||||
BALLOON:
|
||||
SCOREINIT:520,1550
|
||||
SCOREDIFF:135
|
||||
|
||||
#START
|
||||
#MEASURE 1/8
|
||||
#BARLINEOFF
|
||||
3,
|
||||
|
||||
#MEASURE 4/4
|
||||
#BARLINEON
|
||||
00000003,
|
||||
00000003,
|
||||
00000001,
|
||||
01010203, //5
|
||||
|
||||
0010221022112030,
|
||||
0010221022102030,
|
||||
0010221022112030,
|
||||
0010201000102222, //9
|
||||
|
||||
10112101,
|
||||
2010201120100000,
|
||||
10112101,
|
||||
0, //13
|
||||
|
||||
12121121,
|
||||
0010201210010020,
|
||||
12121121,
|
||||
0010101210102222, //17
|
||||
|
||||
21211212,
|
||||
1010201220102010,
|
||||
01211212,
|
||||
100000000000200000100200200000100000200200202020, //21
|
||||
|
||||
12121121,
|
||||
0010201210010020,
|
||||
12121121,
|
||||
0010201210102222, //25
|
||||
|
||||
21211212,
|
||||
1010201220102020,
|
||||
11211212,
|
||||
100000200000100100200200100100101010101010100100, //29
|
||||
|
||||
1020102210201022,
|
||||
1020102210221012,
|
||||
1020102210201022,
|
||||
1020102210221012, //33
|
||||
|
||||
1020102210201022,
|
||||
1020102210221012,
|
||||
1022102210221122,
|
||||
1022111122221012, //37
|
||||
|
||||
1020102210221022,
|
||||
1020102210221012,
|
||||
1022102210221022,
|
||||
1022102210221012, //41
|
||||
|
||||
100000200200100000200200100000200200100000202020,
|
||||
100100100100200200200200100100100100202020101010,
|
||||
500000000000000000000000000000000000000008000000,
|
||||
44, //45
|
||||
|
||||
#GOGOSTART
|
||||
2011202120112012,
|
||||
1011202120112012,
|
||||
1011202010221010,
|
||||
2011212010221210, //49
|
||||
|
||||
2011202120112012,
|
||||
1011202120112012,
|
||||
101010200200101010200200101010200200100100200000,
|
||||
300000000000400000300000000000400000100100202020, //53
|
||||
|
||||
2011202120112012,
|
||||
1011202120112012,
|
||||
1011202010221010,
|
||||
2011212010221040, //57
|
||||
|
||||
0012102010221030,
|
||||
000000100100200000200200100100200200101010101010,
|
||||
22020202,
|
||||
02020014, //61
|
||||
#GOGOEND
|
||||
|
||||
0010102211112010,
|
||||
0010202211221020,
|
||||
000000200200100000200200100100202020200000100000,
|
||||
01210104, //65
|
||||
|
||||
0010102211112010,
|
||||
0010202211221020,
|
||||
000000200200100000200200100100202020200000100000,
|
||||
0010201000101212, //69
|
||||
|
||||
10112101,
|
||||
0010201120100000,
|
||||
10112101,
|
||||
0, //73
|
||||
#END
|
||||
|
||||
|
||||
COURSE:Hard
|
||||
LEVEL:6
|
||||
BALLOON:20,10,8,5
|
||||
SCOREINIT:680,2780
|
||||
SCOREDIFF:185
|
||||
|
||||
#START
|
||||
#BARLINEOFF
|
||||
#MEASURE 1/8
|
||||
3,
|
||||
|
||||
#BARLINEON
|
||||
#MEASURE 4/4
|
||||
00000003,
|
||||
00000003,
|
||||
00000001,
|
||||
01010203,
|
||||
|
||||
01211223,
|
||||
01210203,
|
||||
01211223,
|
||||
01210211, //9
|
||||
|
||||
10112101,
|
||||
01212100,
|
||||
10112101,
|
||||
0,
|
||||
|
||||
10121121,
|
||||
0010201010010010,
|
||||
10121121,
|
||||
01121121, //17
|
||||
|
||||
01211212,
|
||||
10210200,
|
||||
01211212,
|
||||
10210200,
|
||||
|
||||
10121121,
|
||||
0010201010010010,
|
||||
10121121,
|
||||
01121121, //25
|
||||
|
||||
01211212,
|
||||
10210200,
|
||||
11211212,
|
||||
10210120,
|
||||
|
||||
10121210,
|
||||
10121212,
|
||||
10121210,
|
||||
10121212, //33
|
||||
|
||||
10121210,
|
||||
10121212,
|
||||
10121215,
|
||||
000000000000000000000000000000000008000000000000,
|
||||
|
||||
12121212,
|
||||
02020212,
|
||||
12121212,
|
||||
12121210,
|
||||
|
||||
7,
|
||||
000000000000000000000008000000200000100000500000,
|
||||
000000000000000000000000000000000000000008000000,
|
||||
44, //45
|
||||
|
||||
#GOGOSTART
|
||||
11221120,
|
||||
11210125,
|
||||
000000000000000000000008000000200000200000700000,
|
||||
00000800,
|
||||
|
||||
11210121,
|
||||
01212127,
|
||||
08,
|
||||
30430400, //53
|
||||
|
||||
11221120,
|
||||
11210125,
|
||||
000000000000000000000008000000200000200000700000,
|
||||
000000000000080000000000100000000000100000400000,
|
||||
|
||||
00002023,
|
||||
00000122,
|
||||
11020202,
|
||||
02020004, //61
|
||||
#GOGOEND
|
||||
|
||||
01121121,
|
||||
01220112,
|
||||
02121221,
|
||||
01210104,
|
||||
|
||||
01121121,
|
||||
01220112,
|
||||
02121221,
|
||||
01210100,
|
||||
|
||||
10112101,
|
||||
01212100,
|
||||
10112101,
|
||||
0, //73
|
||||
#END
|
||||
|
||||
|
||||
COURSE:Normal
|
||||
LEVEL:5
|
||||
BALLOON:16,12
|
||||
SCOREINIT:810,4640
|
||||
SCOREDIFF:255
|
||||
|
||||
#START
|
||||
#BARLINEOFF
|
||||
#MEASURE 1/8
|
||||
3,
|
||||
|
||||
#BARLINEON
|
||||
#MEASURE 4/4
|
||||
00000003,
|
||||
00000003,
|
||||
00000001,
|
||||
01010203,
|
||||
|
||||
01110003,
|
||||
01110003,
|
||||
01110003,
|
||||
01010200, //9
|
||||
|
||||
10102001,
|
||||
01012000,
|
||||
10102001,
|
||||
0,
|
||||
|
||||
10101011,
|
||||
01,
|
||||
10101011,
|
||||
00001011, //17
|
||||
|
||||
02202020,
|
||||
20220200,
|
||||
02202020,
|
||||
20220200,
|
||||
|
||||
10101011,
|
||||
01,
|
||||
10101011,
|
||||
00001011, //25
|
||||
|
||||
02202020,
|
||||
20220200,
|
||||
02202020,
|
||||
20220220,
|
||||
|
||||
0111,
|
||||
100000000000100000100000000000500000000000000008,
|
||||
0111,
|
||||
10110105, //33
|
||||
|
||||
000000000000000000000008000000000000200000000000,
|
||||
1212,
|
||||
7,
|
||||
000000000000000000000000000000000000000000000008,
|
||||
|
||||
00101011,
|
||||
01010100,
|
||||
34,
|
||||
30040040,
|
||||
|
||||
7,
|
||||
000000000000000000000008000000200000200000500000,
|
||||
000000000000000000000000000000000000000008000000,
|
||||
44, //45
|
||||
|
||||
#GOGOSTART
|
||||
1212,
|
||||
10110105,
|
||||
000000000000000008000000000000200000200000500000,
|
||||
000000000000000000000000000008000000000000000000,
|
||||
|
||||
10220101,
|
||||
0225,
|
||||
000000000000000000000000000008000000000000000000,
|
||||
30330300, //53
|
||||
|
||||
1212,
|
||||
10220105,
|
||||
000000000000000008000000000000200000200000500000,
|
||||
000000000000000008000000100000000000000000400000,
|
||||
|
||||
00001003,
|
||||
0,
|
||||
11020202,
|
||||
02020004, //61
|
||||
#GOGOEND
|
||||
|
||||
00101011,
|
||||
00101011,
|
||||
00101012,
|
||||
02020204,
|
||||
|
||||
00101011,
|
||||
00101011,
|
||||
00101012,
|
||||
02020200,
|
||||
|
||||
10102001,
|
||||
01012000,
|
||||
10102001,
|
||||
0, //73
|
||||
#END
|
||||
|
||||
|
||||
COURSE:Easy
|
||||
LEVEL:4
|
||||
BALLOON:5,11,12,14,9,8,5,6
|
||||
SCOREINIT:890,8960
|
||||
SCOREDIFF:368
|
||||
|
||||
#START
|
||||
#BARLINEOFF
|
||||
#MEASURE 1/8
|
||||
3,
|
||||
|
||||
#BARLINEON
|
||||
#MEASURE 4/4
|
||||
00000003,
|
||||
00000003,
|
||||
00000007,
|
||||
000000000000000000000000000000080000000000300000,
|
||||
|
||||
00000004,
|
||||
00000003,
|
||||
00000004,
|
||||
0, //9
|
||||
|
||||
10002001,
|
||||
02,
|
||||
10002001,
|
||||
0,
|
||||
|
||||
10101001,
|
||||
0,
|
||||
10101001,
|
||||
0, //17
|
||||
|
||||
05000000,
|
||||
000000000000000000000000000008000000000000000000,
|
||||
07000000,
|
||||
000000000000000000000000000000080000000000000000,
|
||||
|
||||
10101001,
|
||||
0,
|
||||
10101001,
|
||||
0, //25
|
||||
|
||||
05000000,
|
||||
000000000000000000000000000008000000000000000000,
|
||||
07000000,
|
||||
000000000000000000000000000000000000800000000000,
|
||||
|
||||
0111,
|
||||
100000000000500000000000000000000000000000000008,
|
||||
0111,
|
||||
1500, //33
|
||||
|
||||
000000000000000000000008000000000000100000000000,
|
||||
1111,
|
||||
7,
|
||||
000000000000000000000000000000000000000000000008,
|
||||
|
||||
00101015,
|
||||
000000000000000000000000000008000000000000000000,
|
||||
33,
|
||||
40040040,
|
||||
|
||||
7,
|
||||
000000000000000000000008000000000000000000500000,
|
||||
000000000000000000000000000000000008000000000000,
|
||||
44, //45
|
||||
|
||||
#GOGOSTART
|
||||
1111,
|
||||
10100105,
|
||||
000000000000000008000000000000700000000000000000,
|
||||
000000000000000000000000000000080000000000000000,
|
||||
|
||||
10100101,
|
||||
0115,
|
||||
000000000000000000000000000008000000000000000000,
|
||||
7008, //53
|
||||
|
||||
1111,
|
||||
10100105,
|
||||
000000000000000008000000000000700000000000000000,
|
||||
000000000000000000080000000000000000000000400000,
|
||||
|
||||
00000003,
|
||||
0,
|
||||
10020202,
|
||||
02020004, //61
|
||||
#GOGOEND
|
||||
|
||||
0101,
|
||||
0101,
|
||||
00101002,
|
||||
02020204,
|
||||
|
||||
0101,
|
||||
0101,
|
||||
00101002,
|
||||
02020200,
|
||||
|
||||
10002001,
|
||||
02,
|
||||
10002001,
|
||||
0, //73
|
||||
#END
|
||||
Reference in New Issue
Block a user