tja
This commit is contained in:
388
tja/754.tja
Normal file
388
tja/754.tja
Normal file
@@ -0,0 +1,388 @@
|
||||
//TJADB Project
|
||||
TITLE:Utakata, Ai no Mahoroba
|
||||
TITLEJA:泡沫、哀のまほろば
|
||||
SUBTITLE:--Yuuhei Satellite/Touhou Project
|
||||
SUBTITLEJA:東方Projectアレンジ 幽閉サテライト
|
||||
BPM:155
|
||||
WAVE:Utakata, Ai no Mahoroba.ogg
|
||||
OFFSET:-1.832
|
||||
DEMOSTART:55.996
|
||||
|
||||
COURSE:Oni
|
||||
LEVEL:8
|
||||
BALLOON:12
|
||||
SCOREINIT:430
|
||||
SCOREDIFF:110
|
||||
|
||||
|
||||
#START
|
||||
|
||||
|
||||
22,
|
||||
22,
|
||||
20020020,
|
||||
20022000,
|
||||
32,
|
||||
32,
|
||||
33,
|
||||
1010101011111111,
|
||||
7008,
|
||||
1011201011112010,
|
||||
1011201020112020,
|
||||
1111201011112010,
|
||||
3000203000102011,
|
||||
1011201011221020,
|
||||
1022102000112010,
|
||||
1111202022111010,
|
||||
100100200000100200000500000000000000008000000000,
|
||||
10222202,
|
||||
12222202,
|
||||
12221202,
|
||||
11221120,
|
||||
12222202,
|
||||
100000200000200000500000000000000000000008000000,
|
||||
01222112,
|
||||
500000000000000000000000000000000008000000000000,
|
||||
10211120,
|
||||
1000201010112020,
|
||||
1110222011102220,
|
||||
1000201000102211,
|
||||
1010201110102011,
|
||||
1010201120102000,
|
||||
33344433,
|
||||
1111203000102022,
|
||||
1111203000101120,
|
||||
3000000011010111,//35
|
||||
|
||||
#GOGOSTART
|
||||
1011201020102011,
|
||||
1011201020102011,
|
||||
1110201110102011,
|
||||
1110201120102000,
|
||||
1011201020102011,
|
||||
1011201020102011,
|
||||
2210201120102211,
|
||||
2010201120102211,
|
||||
1011201020102011,
|
||||
1011201020102011,
|
||||
1110201110102011,
|
||||
1110201120102211,
|
||||
12,
|
||||
12,
|
||||
10211021,
|
||||
1010101011111011,//51
|
||||
|
||||
#GOGOEND
|
||||
1011201011112010,
|
||||
500000000000000000000008000000100100200000200000,
|
||||
1111202211112022,
|
||||
1122104000102011,
|
||||
2222111122221122,
|
||||
1022112000112010,
|
||||
1111202022111010,
|
||||
100100200000100200000500000000000000008000000000,
|
||||
3000000011010111,//60
|
||||
|
||||
#GOGOSTART
|
||||
1011201020102011,
|
||||
1011201020102011,
|
||||
1110201110102011,
|
||||
1110201120102000,
|
||||
1011201020102011,
|
||||
1011201020102011,
|
||||
2210201120102211,
|
||||
2010201122102211,
|
||||
1011201020102011,
|
||||
1011201020102022,
|
||||
1110201110102022,
|
||||
1110201120112211,
|
||||
10213021,
|
||||
30213010,
|
||||
1010101011111010,
|
||||
1010101011111111,//76
|
||||
|
||||
#GOGOEND
|
||||
1,
|
||||
#END
|
||||
|
||||
COURSE:Hard
|
||||
LEVEL:6
|
||||
BALLOON:10
|
||||
SCOREINIT:480
|
||||
SCOREDIFF:140
|
||||
|
||||
#START
|
||||
22,
|
||||
22,
|
||||
20020020,
|
||||
20022000,
|
||||
32,
|
||||
32,
|
||||
5,
|
||||
000000000000000000000000000000000000000008000000,
|
||||
7008,
|
||||
10201120,
|
||||
10201122,
|
||||
1010200011102000,
|
||||
30030000,
|
||||
10201120,
|
||||
10110000,
|
||||
33334444,
|
||||
300000300000100100000600000000000000008000000000,
|
||||
10101001,
|
||||
01101000,
|
||||
2220,
|
||||
20222020,
|
||||
10101001,
|
||||
000000100000100000500000000000000000000008000000,
|
||||
01111222,
|
||||
500000000000000000000000000000000008000000000000,
|
||||
10201120,
|
||||
10201122,
|
||||
1010200011102000,
|
||||
10110122,
|
||||
10201120,
|
||||
10211020,
|
||||
33334444,
|
||||
30030000,
|
||||
20020202,
|
||||
3,//35
|
||||
|
||||
#GOGOSTART
|
||||
1010200011102000,
|
||||
1010200011102000,
|
||||
11211120,
|
||||
1010201010222000,
|
||||
1010200011102000,
|
||||
1010200011102000,
|
||||
2220202020202000,
|
||||
2220202020222000,
|
||||
1010200011102000,
|
||||
1010200011102000,
|
||||
11211120,
|
||||
1010201010222000,
|
||||
12,
|
||||
12,
|
||||
5,
|
||||
000000000000000000000000000000000000000008000000,//51
|
||||
|
||||
#GOGOEND
|
||||
10201120,
|
||||
500000000000000000000008000000100000200000200000,
|
||||
1010200011102000,
|
||||
30040000,
|
||||
1110101011101010,
|
||||
10120000,
|
||||
33334444,
|
||||
300000300000100100000600000000000000008000000000,
|
||||
3,//60
|
||||
|
||||
#GOGOSTART
|
||||
1010200011102000,
|
||||
1010200011102000,
|
||||
11211120,
|
||||
1010201010222000,
|
||||
1010200011102000,
|
||||
1010200011102000,
|
||||
2220202020202000,
|
||||
2220202020111000,
|
||||
1010200011102000,
|
||||
1010200011102000,
|
||||
11211120,
|
||||
1010201020111000,
|
||||
33,
|
||||
33,
|
||||
6,
|
||||
000000000000000000000000000000000000000008000000,//76
|
||||
|
||||
#GOGOEND
|
||||
,
|
||||
#END
|
||||
|
||||
COURSE:Normal
|
||||
LEVEL:4
|
||||
BALLOON:14,6,4
|
||||
|
||||
#START
|
||||
#BARLINEOFF
|
||||
,
|
||||
,
|
||||
,
|
||||
,
|
||||
#BARLINEON
|
||||
3,
|
||||
3,
|
||||
9,
|
||||
09,
|
||||
8,
|
||||
1011,
|
||||
500000000000000000000008000000000000000000000000,
|
||||
1122,
|
||||
30030000,
|
||||
1011,
|
||||
500000000000000000000000000000000008000000000000,
|
||||
11111111,
|
||||
7008,
|
||||
1,
|
||||
1,
|
||||
11,
|
||||
1110,
|
||||
1,
|
||||
2,
|
||||
05000000,
|
||||
000000000000000000000000000000000008000000000000,
|
||||
1011,
|
||||
10000110,
|
||||
1122,
|
||||
1,
|
||||
1011,
|
||||
12,
|
||||
11111111,
|
||||
500000000000000000000000000000000000000000000008,
|
||||
,
|
||||
3,//35
|
||||
|
||||
#GOGOSTART
|
||||
1120,
|
||||
1120,
|
||||
10111010,
|
||||
10111000,
|
||||
1120,
|
||||
1120,
|
||||
10111010,
|
||||
20222000,
|
||||
1120,
|
||||
1120,
|
||||
10111010,
|
||||
10111000,
|
||||
11,
|
||||
12,
|
||||
5,
|
||||
000000000000000000000000000000000008000000000000,//51
|
||||
|
||||
#GOGOEND
|
||||
1011,
|
||||
500000000000000000000008000000000000000000000000,
|
||||
1122,
|
||||
30030000,
|
||||
11101110,
|
||||
500000000000000000000000000000000008000000000000,
|
||||
11111111,
|
||||
78,
|
||||
3,//60
|
||||
|
||||
#GOGOSTART
|
||||
1120,
|
||||
1120,
|
||||
10111010,
|
||||
10111000,
|
||||
1120,
|
||||
1120,
|
||||
20222020,
|
||||
20222000,
|
||||
1120,
|
||||
1120,
|
||||
10111010,
|
||||
20222000,
|
||||
33,
|
||||
33,
|
||||
6,
|
||||
000000000000000000000000000000000000000008000000,//76
|
||||
|
||||
#GOGOEND
|
||||
,
|
||||
#END
|
||||
|
||||
COURSE:Easy
|
||||
LEVEL:2
|
||||
BALLOON:12,4,10,10,4,10,10
|
||||
|
||||
#START
|
||||
#BARLINEOFF
|
||||
,
|
||||
,
|
||||
,
|
||||
,
|
||||
#BARLINEON
|
||||
3,
|
||||
3,
|
||||
9,
|
||||
09,
|
||||
8,
|
||||
11,
|
||||
500000000000000000000008000000000000000000000000,
|
||||
11,
|
||||
3,
|
||||
11,
|
||||
500000000000000000000000000008000000000000000000,
|
||||
33,
|
||||
7008,
|
||||
1,
|
||||
1,
|
||||
1,
|
||||
11,
|
||||
1,
|
||||
2,
|
||||
05000000,
|
||||
000000000000000000000000000008000000000000000000,
|
||||
11,
|
||||
1,
|
||||
22,
|
||||
2,
|
||||
11,
|
||||
11,
|
||||
33,
|
||||
600000000000000000000000000000000000000000000008,
|
||||
,
|
||||
3,//35
|
||||
|
||||
#GOGOSTART
|
||||
11,
|
||||
11,
|
||||
7,
|
||||
08,
|
||||
11,
|
||||
11,
|
||||
5,
|
||||
000000000000000000000000000008000000000000000000,
|
||||
22,
|
||||
22,
|
||||
7,
|
||||
08,
|
||||
11,
|
||||
11,
|
||||
5,
|
||||
000000000000000000000000000008000000000000000000,//51
|
||||
|
||||
#GOGOEND
|
||||
1011,
|
||||
500000000000000000000008000000000000000000000000,
|
||||
11,
|
||||
3,
|
||||
1011,
|
||||
500000000000000000000000000008000000000000000000,
|
||||
33,
|
||||
7008,
|
||||
3,//60
|
||||
|
||||
#GOGOSTART
|
||||
11,
|
||||
11,
|
||||
7,
|
||||
08,
|
||||
11,
|
||||
11,
|
||||
5,
|
||||
000000000000000000000000000008000000000000000000,
|
||||
22,
|
||||
22,
|
||||
7,
|
||||
08,
|
||||
33,
|
||||
33,
|
||||
6,
|
||||
000000000000000000000000000000000000000008000000,//76
|
||||
|
||||
#GOGOEND
|
||||
,
|
||||
#END
|
||||
Reference in New Issue
Block a user