tja
This commit is contained in:
587
tja/758.tja
Normal file
587
tja/758.tja
Normal file
@@ -0,0 +1,587 @@
|
||||
//TJADB Project
|
||||
TITLE:ouroboros -twin stroke of the end-
|
||||
TITLEJA:ouroboros -twin stroke of the end-
|
||||
SUBTITLE:--Cranky ℣ MASAKI/GROOVE COASTER
|
||||
SUBTITLEJA:Cranky VS MASAKI 「グルーヴコースター」より
|
||||
BPM:188
|
||||
WAVE:ouroboros -twin stroke of the end-.ogg
|
||||
OFFSET:-0.082
|
||||
DEMOSTART:79.224
|
||||
|
||||
COURSE:Oni
|
||||
LEVEL:10
|
||||
BALLOON:5,5,14,32,14,15,17
|
||||
SCOREINIT:310
|
||||
SCOREDIFF:68
|
||||
|
||||
|
||||
#START
|
||||
|
||||
|
||||
3000002220020020,
|
||||
20201022,
|
||||
0000201020102011,
|
||||
11212120,
|
||||
0000100020010020,
|
||||
100000100100000200000222,
|
||||
20002222,
|
||||
2010201210102020,
|
||||
0000301212121212,
|
||||
111111111111111111200000,
|
||||
2011112020120120,
|
||||
200000100200100000200000101010100000200000100000,
|
||||
2011112020120120,
|
||||
200000100200100000200000101010100000200000100000,
|
||||
2012212020210210,
|
||||
200000100200100000200000101010100000200000100000,
|
||||
2012212020210210,
|
||||
200000100200100000200000202020100000200000100000,
|
||||
2011112020120120,
|
||||
200000100200100000200000101010100000200000100000,
|
||||
2011112020120120,
|
||||
200000100200100000200000101010100000200000100000,
|
||||
2011202011202020,
|
||||
2012202012202020,
|
||||
2011112011201122,
|
||||
221221111111,
|
||||
300000000111200020002000,
|
||||
12020202,
|
||||
700000000800101010200200,
|
||||
101010101010200200200200100010001000100010001000,
|
||||
300000000111200020002000,
|
||||
12020202,
|
||||
700000000800101010200200,
|
||||
101010101010200200200200100010001000200020002000,
|
||||
400211211211,
|
||||
221221221222,
|
||||
222110000000221110000000,
|
||||
201010101000100100100100100100200200200000000000,
|
||||
1112111122111112,
|
||||
1111221111221222,
|
||||
7008,
|
||||
300000100200000200100000400000102020100000100000,
|
||||
111211111211,
|
||||
112122112122,
|
||||
2212202212204030,
|
||||
202010101010200200100100200100100200200100100000,
|
||||
4004003003004040,
|
||||
3004003004004000,
|
||||
1211221212112212,
|
||||
1002112220020020,
|
||||
4004003003004040,
|
||||
3004003004004000,
|
||||
2122112121221121,
|
||||
2002111212212212,
|
||||
11211121,
|
||||
4030403040302222,
|
||||
7,
|
||||
0008,
|
||||
111100111100,
|
||||
222200222200,
|
||||
7,
|
||||
8000000040120120,//62
|
||||
|
||||
#GOGOSTART
|
||||
500000000008000000100100200000100200000200100000,
|
||||
2011201210112022,
|
||||
500000000008000000100100200000100200000200100000,
|
||||
2012201210122022,
|
||||
1012101120122022,
|
||||
2022102110221112,
|
||||
2000111220120120,
|
||||
2012012010210210,
|
||||
500000000008000000200200200000100100000200200000,
|
||||
1011201210112022,
|
||||
500000000008000000200200200000200100000200200000,
|
||||
2021202210222011,
|
||||
2012101120122012,
|
||||
2022201210112000,
|
||||
4012012040120120,
|
||||
500000000000000000000000000008000000400000000000,//78
|
||||
|
||||
#GOGOEND
|
||||
100000101010200000101020200000100200000200200000,
|
||||
200000202020100000202010100000200100000100100000,
|
||||
100000102020200000202020200000100100000200200000,
|
||||
200000101020200000101010200100200100200100200100,
|
||||
7008,
|
||||
200020002000100020001000200100100200100100200100,
|
||||
200000101010200000100000101010101010200200100100,
|
||||
100200100100200000100000101010200000000000000000,
|
||||
300000100000200000101010200000100200000100200000,
|
||||
300000100000200000101010200000100200000100200000,
|
||||
300000200000200000102020200000100200000100200000,
|
||||
300000200000200000102020200000100200000100200000,
|
||||
1111201201201201,
|
||||
2012012012002020,
|
||||
3022104011103022,
|
||||
200000400000100200200000202020100000300000000000,//94
|
||||
|
||||
#MEASURE 3/4
|
||||
#GOGOSTART
|
||||
200200100100000100200100200000101010,
|
||||
200200100100000100200100200000101010,
|
||||
200200100100000100200100200000101010,
|
||||
200000100200000100200000202020202020,
|
||||
#SCROLL 1.1
|
||||
200200100100000100200100200000101010,
|
||||
200200100100000100200100200000101010,
|
||||
200200100100000100200100200000101010,
|
||||
200000100200000100200000202020202020,
|
||||
#SCROLL 1.2
|
||||
200200200100000100200100200000101010,
|
||||
200200200100000100200100200000101010,
|
||||
200200200100000100200100200000101010,
|
||||
200000200100000100200000202020202020,
|
||||
#SCROLL 1.3
|
||||
200200200100100100200100200100101010,
|
||||
200200200100100100200100200100101010,
|
||||
222111212000,
|
||||
111111111111111111,
|
||||
#MEASURE 4/4
|
||||
#SCROLL 2
|
||||
4//111
|
||||
|
||||
#GOGOEND
|
||||
000,
|
||||
#SCROLL 1
|
||||
2222,
|
||||
7,
|
||||
8222,
|
||||
0000100020010020,
|
||||
100000100100000200000222,
|
||||
20002222,
|
||||
2010201210102020,
|
||||
|
||||
|
||||
#END
|
||||
|
||||
|
||||
COURSE:Hard
|
||||
LEVEL:8
|
||||
BALLOON:3,3,19,7
|
||||
SCOREINIT:400
|
||||
SCOREDIFF:93
|
||||
|
||||
#START
|
||||
3000002220020020,
|
||||
20201022,
|
||||
0222,
|
||||
0222,
|
||||
0000100020010020,
|
||||
1000101000200022,
|
||||
20002222,
|
||||
22222211,
|
||||
00311111,
|
||||
500000000000000000000000000000000008000000000000,
|
||||
1000001020020020,
|
||||
2011102011102000,
|
||||
1000001020020020,
|
||||
2011102011102000,
|
||||
2000002020020020,
|
||||
2011102011102000,
|
||||
2000002020020020,
|
||||
2011102011102000,
|
||||
1000001020020020,
|
||||
2011102011102000,
|
||||
1000001020020020,
|
||||
2011102011102000,
|
||||
20220222,
|
||||
20220222,
|
||||
2000111011101000,
|
||||
222200222200,
|
||||
300222,
|
||||
12020202,
|
||||
78,
|
||||
100200111100,
|
||||
300222,
|
||||
12020202,
|
||||
78,
|
||||
100200111100,
|
||||
400111111200,
|
||||
111111200200,
|
||||
500000000008000000000000500000000008000000000000,
|
||||
500000000000000000000000000000000008000000000000,
|
||||
1010101110001020,
|
||||
1010101110201000,
|
||||
500000000000000000000000000000000008000000000000,
|
||||
3000000020222000,
|
||||
111200111200,
|
||||
111202101200,
|
||||
10210140,
|
||||
2010201011111000,
|
||||
4004003003004040,
|
||||
3004003004004000,
|
||||
1110200011102000,
|
||||
2000222220020020,
|
||||
4004003003004040,
|
||||
3004003004004000,
|
||||
2220200022202000,
|
||||
2000111011101110,
|
||||
11211121,
|
||||
43434343,
|
||||
7,
|
||||
0008,
|
||||
1121,
|
||||
2212,
|
||||
500000000000000000000000000000000000000000000008,
|
||||
0000000040040040,//62
|
||||
|
||||
#GOGOSTART
|
||||
500000000000800000100100100000000100000000100000,
|
||||
2222,
|
||||
500000000000800000100100100000000100000000100000,
|
||||
2222,
|
||||
2000102220001022,
|
||||
2000101110111000,
|
||||
2000222220020020,
|
||||
1002002010020020,
|
||||
500000000000800000200200200000000200000000200000,
|
||||
1212,
|
||||
500000000000800000200200200000000200000000200000,
|
||||
2212,
|
||||
1000102220001022,
|
||||
2000202220111000,
|
||||
4002002040020020,
|
||||
500000000000000000000000000008000000400000000000,//78
|
||||
|
||||
#GOGOEND
|
||||
1000101110020020,
|
||||
2000202220010010,
|
||||
1000101110020020,
|
||||
2000200022202220,
|
||||
7008,
|
||||
101010100000200200200200,
|
||||
200000000000200000500000000000000000000008000000,
|
||||
00000400,
|
||||
3010200010110110,
|
||||
3010200010110110,
|
||||
3020200020220220,
|
||||
3020200020220220,
|
||||
1000200200200200,
|
||||
2002002002002020,
|
||||
30040030,
|
||||
04003030,//94
|
||||
|
||||
#MEASURE 3/4
|
||||
#GOGOSTART
|
||||
111102202000,
|
||||
111102202000,
|
||||
111102202000,
|
||||
200200203000,
|
||||
#SCROLL 1.1
|
||||
111102202000,
|
||||
111102202000,
|
||||
111102202000,
|
||||
200200203000,
|
||||
#SCROLL 1.2
|
||||
111101102010,
|
||||
111101102010,
|
||||
111101102010,
|
||||
200200202020,
|
||||
#SCROLL 1.3
|
||||
222201102010,
|
||||
222201102010,
|
||||
222201102000,
|
||||
600000000000000000000000000000000008,
|
||||
#MEASURE 4/4
|
||||
0//111
|
||||
|
||||
#GOGOEND
|
||||
000,
|
||||
#SCROLL 1
|
||||
20201022,
|
||||
0222,
|
||||
0222,
|
||||
0000100020010020,
|
||||
1000101000200022,
|
||||
20002222,
|
||||
22222211,
|
||||
,
|
||||
#END
|
||||
|
||||
COURSE:Normal
|
||||
LEVEL:7
|
||||
BALLOON:10,3
|
||||
SCOREINIT:550
|
||||
SCOREDIFF:143
|
||||
|
||||
#START
|
||||
3,
|
||||
2212,
|
||||
0222,
|
||||
0222,
|
||||
0000100020010020,
|
||||
10210200,
|
||||
2022,
|
||||
20202022,
|
||||
0300,
|
||||
500000000000000000000000000000000008000000000000,
|
||||
12,
|
||||
10110110,
|
||||
12,
|
||||
10110110,
|
||||
12,
|
||||
20220220,
|
||||
12,
|
||||
20220240,
|
||||
12,
|
||||
10110110,
|
||||
12,
|
||||
10110110,
|
||||
20220220,
|
||||
20220220,
|
||||
2022,
|
||||
500000000000000000000000000000000008000000000000,
|
||||
32,
|
||||
12020202,
|
||||
600000000000000000000000000000000000000000000008,
|
||||
,
|
||||
32,
|
||||
12020202,
|
||||
600000000000000000000000000000000000000000000008,
|
||||
,
|
||||
2022,
|
||||
2220,
|
||||
500000000008000000000000500000000008000000000000,
|
||||
500000000000000000000000000000000008000000000000,
|
||||
10101012,
|
||||
10101210,
|
||||
500000000000000000000000000000000008000000000000,
|
||||
3,
|
||||
1212,
|
||||
1122,
|
||||
10210140,
|
||||
10101110,
|
||||
30040030,
|
||||
40030040,
|
||||
11201120,
|
||||
1000100020020020,
|
||||
30040030,
|
||||
40030040,
|
||||
11201120,
|
||||
20202222,
|
||||
1111,
|
||||
4444,
|
||||
7,
|
||||
0008,
|
||||
22,
|
||||
22,
|
||||
500000000000000000000000000000000000000000000008,
|
||||
04,//62
|
||||
|
||||
#GOGOSTART
|
||||
500000000000000000000000000008000000000000000000,
|
||||
1111,
|
||||
500000000000000000000000000008000000000000000000,
|
||||
1111,
|
||||
2122,
|
||||
1211,
|
||||
500000000000000000000000000008000000000000000000,
|
||||
1001001020020020,
|
||||
500000000000000000000000000008000000000000000000,
|
||||
1212,
|
||||
500000000000000000000000000008000000000000000000,
|
||||
1212,
|
||||
2122,
|
||||
1212,
|
||||
33,
|
||||
500000000000000000000000000008000000000000000000,//78
|
||||
|
||||
#GOGOEND
|
||||
1000100020020020,
|
||||
2000200010010010,
|
||||
1000100020020020,
|
||||
20202220,
|
||||
7008,
|
||||
10102220,
|
||||
200000000000200000500000000000000000000008000000,
|
||||
00000400,
|
||||
3120,
|
||||
3120,
|
||||
3220,
|
||||
3220,
|
||||
1000200200200200,
|
||||
2002002002002000,
|
||||
30040030,
|
||||
04003000,//94
|
||||
|
||||
#MEASURE 3/4
|
||||
#GOGOSTART
|
||||
100100102000,
|
||||
100100102000,
|
||||
100100102000,
|
||||
200200204000,
|
||||
#SCROLL 1.1
|
||||
100100102000,
|
||||
100100102000,
|
||||
100100102000,
|
||||
200200204000,
|
||||
#SCROLL 1.2
|
||||
100200102000,
|
||||
100200102000,
|
||||
100200102000,
|
||||
200200202000,
|
||||
#SCROLL 1.3
|
||||
200200102000,
|
||||
200200102000,
|
||||
200200102000,
|
||||
600000000000000000000000000000000008,
|
||||
#MEASURE 4/4
|
||||
0//111
|
||||
|
||||
#GOGOEND
|
||||
000,
|
||||
#SCROLL 1
|
||||
2212,
|
||||
0222,
|
||||
0222,
|
||||
0000100020010020,
|
||||
10210200,
|
||||
2022,
|
||||
20202022,
|
||||
,
|
||||
#END
|
||||
|
||||
COURSE:Easy
|
||||
LEVEL:5
|
||||
BALLOON:7,4
|
||||
SCOREINIT:510
|
||||
SCOREDIFF:133
|
||||
|
||||
#START
|
||||
3,
|
||||
1011,
|
||||
02,
|
||||
02,
|
||||
01,
|
||||
1,
|
||||
12,
|
||||
2222,
|
||||
0300,
|
||||
500000000000000000000000000008000000000000000000,
|
||||
12,
|
||||
10010010,
|
||||
12,
|
||||
10010010,
|
||||
12,
|
||||
20020020,
|
||||
12,
|
||||
20020040,
|
||||
12,
|
||||
10010010,
|
||||
12,
|
||||
10010010,
|
||||
2202,
|
||||
2202,
|
||||
2022,
|
||||
500000000000000000000000000008000000000000000000,
|
||||
31,
|
||||
1,
|
||||
600000000000000000000000000000000000000000000008,
|
||||
,
|
||||
31,
|
||||
1,
|
||||
600000000000000000000000000000000000000000000008,
|
||||
,
|
||||
22,
|
||||
2220,
|
||||
500000000008000000000000500000000008000000000000,
|
||||
500000000000000000000000000000000008000000000000,
|
||||
1111,
|
||||
1110,
|
||||
500000000000000000000000000000000008000000000000,
|
||||
3,
|
||||
1212,
|
||||
1120,
|
||||
10010010,
|
||||
1,
|
||||
3,
|
||||
4,
|
||||
11,
|
||||
1110,
|
||||
3,
|
||||
4,
|
||||
11,
|
||||
1110,
|
||||
1111,
|
||||
3333,
|
||||
7,
|
||||
0008,
|
||||
2,
|
||||
2,
|
||||
500000000000000000000000000000000000000000000008,
|
||||
,//62
|
||||
|
||||
#GOGOSTART
|
||||
500000000000000000000000000008000000000000000000,
|
||||
1110,
|
||||
500000000000000000000000000008000000000000000000,
|
||||
1110,
|
||||
22,
|
||||
11,
|
||||
500000000000000000000000000008000000000000000000,
|
||||
11,
|
||||
500000000000000000000000000008000000000000000000,
|
||||
1110,
|
||||
500000000000000000000000000008000000000000000000,
|
||||
1110,
|
||||
1011,
|
||||
11,
|
||||
33,
|
||||
500000000000000000000000000008000000000000000000,//78
|
||||
|
||||
#GOGOEND
|
||||
1110,
|
||||
2220,
|
||||
1110,
|
||||
1210,
|
||||
7008,
|
||||
12,
|
||||
500000000000000000000000000000000000000008000000,
|
||||
,
|
||||
32,
|
||||
32,
|
||||
32,
|
||||
32,
|
||||
5,
|
||||
000000000000000000000000000008000000000000000000,
|
||||
30030030,
|
||||
03003000,//94
|
||||
|
||||
#MEASURE 3/4
|
||||
#GOGOSTART
|
||||
102,
|
||||
102,
|
||||
102,
|
||||
103,
|
||||
#SCROLL 1.1
|
||||
102,
|
||||
102,
|
||||
102,
|
||||
103,
|
||||
#SCROLL 1.2
|
||||
100110,
|
||||
100110,
|
||||
100110,
|
||||
200220,
|
||||
#SCROLL 1.3
|
||||
100120,
|
||||
100120,
|
||||
100120,
|
||||
600000000000000000000000000000000008,
|
||||
#MEASURE 4/4
|
||||
0//111
|
||||
|
||||
#GOGOEND
|
||||
000,
|
||||
#SCROLL 1
|
||||
1011,
|
||||
02,
|
||||
02,
|
||||
01,
|
||||
1,
|
||||
22,
|
||||
2222,
|
||||
,
|
||||
#END
|
||||
Reference in New Issue
Block a user