tja
This commit is contained in:
412
tja/76.tja
Normal file
412
tja/76.tja
Normal file
@@ -0,0 +1,412 @@
|
||||
//TJADB Project
|
||||
TITLE:Sword Battlers
|
||||
TITLEJA:ソードバトラーズ
|
||||
SUBTITLE:--Mitchie M
|
||||
BPM:150
|
||||
WAVE:Sword Battlers.ogg
|
||||
OFFSET:-2.405
|
||||
DEMOSTART:9.596
|
||||
|
||||
COURSE:Edit
|
||||
LEVEL:9
|
||||
SCOREINIT:550
|
||||
SCOREDIFF:120
|
||||
|
||||
|
||||
#START
|
||||
|
||||
|
||||
#MEASURE 2/4
|
||||
00002011,
|
||||
#MEASURE 4/4
|
||||
1020111020121020,
|
||||
1110201210404040,
|
||||
1020111020121020,
|
||||
1110201210404040,
|
||||
1101201011012010,
|
||||
1101201020112020,
|
||||
1101201011012010,
|
||||
1101201020112020,
|
||||
1101201101201210,
|
||||
1101201101201210,
|
||||
202020101010202010100000100000000100200000100000,
|
||||
10434034,
|
||||
1101201011012010,
|
||||
1101201020112020,
|
||||
1101201011012010,
|
||||
1101201020112020,
|
||||
1101201101201210,
|
||||
1101201101201210,
|
||||
202020101010202010100000100000000100200000100000,
|
||||
322322322300,
|
||||
3001201020001020,
|
||||
21012021,
|
||||
1001201020001020,
|
||||
2010001020012010,
|
||||
1001201020001020,
|
||||
21012021,
|
||||
1001201020001020,
|
||||
211221,
|
||||
100000000100200000101010202020101010000000200000,
|
||||
21012021,
|
||||
100000000100200000101010202020101010000000200000,
|
||||
21012021,
|
||||
1001201010012020,
|
||||
1001201122112211,
|
||||
122211122211,
|
||||
3,
|
||||
,
|
||||
|
||||
1011200202102110,
|
||||
1011201200102220,
|
||||
1011200202102110,
|
||||
1211211122221222,
|
||||
#GOGOSTART
|
||||
1011201202102210,
|
||||
1021101202102210,
|
||||
1220202101202210,
|
||||
1210201022221122,
|
||||
1210202100104000,
|
||||
1210201200104000,
|
||||
100000200100000200100000200200100100202010100000,
|
||||
1210201201202222,
|
||||
1011201202102210,
|
||||
1021101202102210,
|
||||
1220202101202210,
|
||||
1210201022221122,
|
||||
1210202100104000,
|
||||
1210201200104000,
|
||||
100000200100000200100000200200100100202010100000,
|
||||
1210201022221122,
|
||||
1210200102102212,
|
||||
1210201202102212,
|
||||
1210200102102212,
|
||||
100200000100200000100000200200100000202010100000,
|
||||
3,
|
||||
#GOGOEND
|
||||
|
||||
|
||||
#END
|
||||
|
||||
|
||||
COURSE:Oni
|
||||
LEVEL:7
|
||||
BALLOON:12,70
|
||||
SCOREINIT:690
|
||||
SCOREDIFF:150
|
||||
|
||||
|
||||
#START
|
||||
|
||||
|
||||
#MEASURE 2/4
|
||||
#BARLINEOFF
|
||||
,
|
||||
#MEASURE 4/4
|
||||
#BARLINEON
|
||||
30201212,
|
||||
2210102210404040,
|
||||
30201212,
|
||||
2210102210404040,
|
||||
3000201000221020,
|
||||
10210402,
|
||||
1000201000221020,
|
||||
1000003040012010,
|
||||
1011201000102210,
|
||||
1011201000102050,
|
||||
00008121,
|
||||
00304034,
|
||||
3000201000221020,
|
||||
10210402,
|
||||
1000201000221020,
|
||||
1000003040012010,
|
||||
1011201000102210,
|
||||
1011201000102050,
|
||||
0008,
|
||||
111222112200,
|
||||
30020111,
|
||||
2000002000102022,
|
||||
10020111,
|
||||
2000002000102022,
|
||||
10020111,
|
||||
2000002000102022,
|
||||
10020111,
|
||||
222111,
|
||||
1000002210201010,
|
||||
20021121,
|
||||
1000002210201010,
|
||||
20021121,
|
||||
1000002210201110,
|
||||
2000002210201110,
|
||||
222111221100,
|
||||
4,
|
||||
,
|
||||
|
||||
1022200100102220,
|
||||
1022201000102220,
|
||||
1022200100102220,
|
||||
1022221112211000,
|
||||
#GOGOSTART
|
||||
3011201110112020,
|
||||
1011201110221020,
|
||||
1011201110112020,
|
||||
1011201110221020,
|
||||
1001102001104012,
|
||||
1001102001104012,
|
||||
1002002010020020,
|
||||
1170000000008000,
|
||||
3011201110112020,
|
||||
1011201110221020,
|
||||
1011201110112020,
|
||||
1011201110221020,
|
||||
1001102001104012,
|
||||
1001102001104012,
|
||||
1002002010020020,
|
||||
1000303030030030,
|
||||
1170000000000000,
|
||||
,
|
||||
,
|
||||
08,
|
||||
3,
|
||||
#GOGOEND
|
||||
|
||||
|
||||
#END
|
||||
|
||||
|
||||
COURSE:Hard
|
||||
LEVEL:6
|
||||
BALLOON:10,55
|
||||
|
||||
#START
|
||||
#MEASURE 2/4
|
||||
#BARLINEOFF
|
||||
,
|
||||
#MEASURE 4/4
|
||||
#BARLINEON
|
||||
30200202,
|
||||
2220202220404040,
|
||||
30200202,
|
||||
2220202220404040,
|
||||
30210210,
|
||||
10210402,
|
||||
10210210,
|
||||
10034012,
|
||||
00120121,
|
||||
00120125,
|
||||
00008121,
|
||||
00304034,
|
||||
30210210,
|
||||
10210402,
|
||||
10210210,
|
||||
10034012,
|
||||
00120121,
|
||||
00120125,
|
||||
0008,
|
||||
111100222200,
|
||||
30012011,
|
||||
20012022,
|
||||
10012011,
|
||||
20012022,
|
||||
10012011,
|
||||
20012022,
|
||||
10012011,
|
||||
222111,
|
||||
1000002220001010,
|
||||
20021022,
|
||||
1000002220001010,
|
||||
20021022,
|
||||
10210111,
|
||||
20210111,
|
||||
222200111100,
|
||||
4,
|
||||
,
|
||||
|
||||
1022200100102000,
|
||||
1022201000102000,
|
||||
1022200100102000,
|
||||
1022201022222000,
|
||||
#GOGOSTART
|
||||
3000201110102000,
|
||||
3000201110202000,
|
||||
3000201110102000,
|
||||
3000201110202020,
|
||||
10020140,
|
||||
10020140,
|
||||
1002002010020020,
|
||||
1170000000008000,
|
||||
3000201110102000,
|
||||
3000201110202000,
|
||||
3000201110102000,
|
||||
3000201110202020,
|
||||
10020140,
|
||||
10020140,
|
||||
1002002010020020,
|
||||
1000303030030030,
|
||||
1170000000000000,
|
||||
,
|
||||
,
|
||||
08,
|
||||
3,
|
||||
#GOGOEND
|
||||
,
|
||||
,
|
||||
#END
|
||||
|
||||
COURSE:Normal
|
||||
LEVEL:6
|
||||
BALLOON:6,6,30
|
||||
|
||||
#START
|
||||
#MEASURE 2/4
|
||||
#BARLINEOFF
|
||||
,
|
||||
#MEASURE 4/4
|
||||
#BARLINEON
|
||||
30200202,
|
||||
22020444,
|
||||
30200202,
|
||||
22020444,
|
||||
30011010,
|
||||
10011201,
|
||||
10011010,
|
||||
10011201,
|
||||
10220111,
|
||||
00220115,
|
||||
00008111,
|
||||
00404033,
|
||||
30011010,
|
||||
10011201,
|
||||
10011010,
|
||||
10011201,
|
||||
10220111,
|
||||
00220115,
|
||||
0008,
|
||||
7008,
|
||||
30010020,
|
||||
10010021,
|
||||
10010020,
|
||||
10010021,
|
||||
10010020,
|
||||
10010021,
|
||||
10010020,
|
||||
5008,
|
||||
10012020,
|
||||
10012021,
|
||||
10012020,
|
||||
10012021,
|
||||
10010220,
|
||||
10010220,
|
||||
7008,
|
||||
4,
|
||||
,
|
||||
|
||||
10200120,
|
||||
10200120,
|
||||
10200120,
|
||||
10202220,
|
||||
#GOGOSTART
|
||||
30011020,
|
||||
30011220,
|
||||
30011020,
|
||||
30011222,
|
||||
5084,
|
||||
5084,
|
||||
33,
|
||||
6008,
|
||||
30011020,
|
||||
30011220,
|
||||
30011020,
|
||||
30011222,
|
||||
6084,
|
||||
6084,
|
||||
33,
|
||||
30333030,
|
||||
9,
|
||||
,
|
||||
09,
|
||||
8,
|
||||
3,
|
||||
#GOGOEND
|
||||
,
|
||||
,
|
||||
#END
|
||||
|
||||
COURSE:Easy
|
||||
LEVEL:4
|
||||
BALLOON:5,5,25
|
||||
|
||||
#START
|
||||
#MEASURE 2/4
|
||||
#BARLINEOFF
|
||||
,
|
||||
#MEASURE 4/4
|
||||
#BARLINEON
|
||||
3220,
|
||||
2220,
|
||||
3220,
|
||||
2220,
|
||||
3011,
|
||||
58,
|
||||
1011,
|
||||
58,
|
||||
10022000,
|
||||
10022000,
|
||||
58,
|
||||
0440,
|
||||
3011,
|
||||
58,
|
||||
1011,
|
||||
58,
|
||||
10022000,
|
||||
10022000,
|
||||
58,
|
||||
7008,
|
||||
30012000,
|
||||
10012010,
|
||||
10012000,
|
||||
10012011,
|
||||
10012000,
|
||||
10012010,
|
||||
10012000,
|
||||
5008,
|
||||
10012020,
|
||||
10012010,
|
||||
10012020,
|
||||
10012011,
|
||||
10012020,
|
||||
10012010,
|
||||
7008,
|
||||
4,
|
||||
,
|
||||
|
||||
1202,
|
||||
1202,
|
||||
1202,
|
||||
10202220,
|
||||
#GOGOSTART
|
||||
30011000,
|
||||
30011000,
|
||||
30011000,
|
||||
30011020,
|
||||
5084,
|
||||
5084,
|
||||
33,
|
||||
6008,
|
||||
30011000,
|
||||
30011000,
|
||||
30011000,
|
||||
30011020,
|
||||
5084,
|
||||
5084,
|
||||
33,
|
||||
3333,
|
||||
9,
|
||||
,
|
||||
09,
|
||||
8,
|
||||
3,
|
||||
#GOGOEND
|
||||
,
|
||||
,
|
||||
#END
|
||||
Reference in New Issue
Block a user