tja
This commit is contained in:
600
tja/764.tja
Normal file
600
tja/764.tja
Normal file
@@ -0,0 +1,600 @@
|
||||
//TJADB Project
|
||||
TITLE:Coquette
|
||||
TITLEJA:Coquette
|
||||
SUBTITLE:--Jun Kuroda
|
||||
SUBTITLEJA:Jun Kuroda
|
||||
BPM:200
|
||||
WAVE:Coquette.ogg
|
||||
OFFSET:-1.403
|
||||
DEMOSTART:20.890
|
||||
|
||||
COURSE:Oni
|
||||
LEVEL:10
|
||||
BALLOON:16,2,5
|
||||
SCOREINIT:300
|
||||
SCOREDIFF:80
|
||||
|
||||
|
||||
#START
|
||||
|
||||
|
||||
#MEASURE 1/4
|
||||
100100101010,
|
||||
#MEASURE 4/4
|
||||
10201201,
|
||||
0210202011102010,
|
||||
1010121012101210,
|
||||
10202020102020202220202010202020,
|
||||
1003004003000303,
|
||||
0301104002104030,
|
||||
#SCROLL 2
|
||||
7008,
|
||||
#SCROLL 1
|
||||
10101110101011101010001000100010,
|
||||
1000200210102012,
|
||||
1010201011102010,
|
||||
1011201211202022,
|
||||
1010201212112020,
|
||||
3000200210102012,
|
||||
1010201011102010,
|
||||
1011201211202011,
|
||||
200000100200100000100200101010200100200000200000,
|
||||
3010201210102012,
|
||||
1010201211102010,
|
||||
1011201211202022,
|
||||
1010201212112020,
|
||||
3010201210102012,
|
||||
1010201211102010,
|
||||
1011201211202011,
|
||||
200000100200100000100200101010200100101000202000,
|
||||
|
||||
#SCROLL 1.5
|
||||
#GOGOSTART
|
||||
1010101120101120,
|
||||
#MEASURE 3/4
|
||||
302030201121,
|
||||
#MEASURE 4/4
|
||||
1010101120101120,
|
||||
#MEASURE 3/4
|
||||
100040001000400011102010,
|
||||
#MEASURE 4/4
|
||||
1010101120101120,
|
||||
#MEASURE 3/4
|
||||
302030201121,
|
||||
#MEASURE 4/4
|
||||
201010200100201010200100100000300000300000300000,
|
||||
200200200000100000100000200200200000100000100000200010001000200010001000100000100000100000100000,
|
||||
#GOGOEND
|
||||
#MEASURE 3/4
|
||||
#SCROLL 0.9
|
||||
222000000000200020002000,
|
||||
#SCROLL 0.88
|
||||
202202,
|
||||
#SCROLL 0.85
|
||||
202202,
|
||||
#SCROLL 0.83
|
||||
202,
|
||||
#SCROLL 0.8
|
||||
200202,
|
||||
#SCROLL 0.78
|
||||
222,
|
||||
#SCROLL 0.75
|
||||
202202,
|
||||
#SCROLL 0.73
|
||||
200000222020,
|
||||
#SCROLL 0.7
|
||||
222000000000100020002000,
|
||||
#SCROLL 0.68
|
||||
211201,
|
||||
#SCROLL 0.65
|
||||
212201,
|
||||
#SCROLL 0.63
|
||||
211220,
|
||||
#SCROLL 0.6
|
||||
221211,
|
||||
#SCROLL 0.58
|
||||
212120,
|
||||
#SCROLL 0.55
|
||||
201020201022,
|
||||
#SCROLL 0.53
|
||||
211210,
|
||||
#SCROLL 0.5
|
||||
100100100100100000100100101010101010,
|
||||
100100100100100000100100101010101010,
|
||||
#MEASURE 4/4
|
||||
,
|
||||
#SCROLL 1
|
||||
3000200210102012,
|
||||
0210201210102022,
|
||||
1000200210102012,
|
||||
0211201212212222,
|
||||
1000200210102012,
|
||||
0210201210102022,
|
||||
1000200210102012,
|
||||
000200100100200000100200100200100100202020200200,
|
||||
1000200212102012,
|
||||
0210201212102022,
|
||||
1010200212112012,
|
||||
0211201212212222,
|
||||
1000200212102012,
|
||||
0210201212102022,
|
||||
1010200212112012,
|
||||
000200100100200000100200100200100100202020200000,
|
||||
#SCROLL 1.5
|
||||
30403033,
|
||||
100000000000100000000000200200000000200200000000100010001000200020002000200000100000100000200000,
|
||||
#GOGOSTART
|
||||
#SCROLL 1
|
||||
700000800000100100200200100000200100000100200000,
|
||||
100100200100100200200200500008000000100100200100,
|
||||
500008000000100200200100100000200100000100200200,
|
||||
1021211221122122,
|
||||
100100200100200100100200100200200100202020100100,
|
||||
100100200200100100200200100200200200102020200200,
|
||||
100200100200100100200100200200100100101010202020,
|
||||
2201201201104030,
|
||||
7000802210210120,
|
||||
1021011012012122,
|
||||
1021122112212122,
|
||||
000000200000200200100100202020100200200200100100,
|
||||
100000200100200000100200100100200000101010200000,
|
||||
100100200000101020200000100100200200101010200200,
|
||||
100100100100101010100100100100100100101010200200,
|
||||
200000200000200000200000200020002000200000200000200000200000100000000000200200000000100100000000,
|
||||
#GOGOEND
|
||||
3000200210102012,
|
||||
1010201011102010,
|
||||
1011201211202022,
|
||||
1010201212112020,
|
||||
3000200210102012,
|
||||
1010201011102010,
|
||||
1011201211202011,
|
||||
200000100200100000100200101010200100200000200000,
|
||||
3010201210102012,
|
||||
1010201211102010,
|
||||
1011201211202022,
|
||||
1010201212112020,
|
||||
3010201210102012,
|
||||
1010201211102010,
|
||||
1011201211202011,
|
||||
200000100200100000100200101010200100101000202000,
|
||||
3,
|
||||
|
||||
|
||||
#END
|
||||
|
||||
|
||||
COURSE:Hard
|
||||
LEVEL:8
|
||||
BALLOON:21,10
|
||||
SCOREINIT:380
|
||||
SCOREDIFF:120
|
||||
|
||||
#START
|
||||
#BARLINEOFF
|
||||
#MEASURE 1/4
|
||||
,
|
||||
|
||||
#BARLINEON
|
||||
#MEASURE 4/4
|
||||
10010010,
|
||||
01001001,
|
||||
01111111,
|
||||
2020202022202020,
|
||||
3000000000000300,
|
||||
,
|
||||
7,
|
||||
00000008,
|
||||
|
||||
30201120,
|
||||
11210120,
|
||||
10201120,
|
||||
1010201011102020,
|
||||
30201120,
|
||||
11210120,
|
||||
10201120,
|
||||
1010201011102020,
|
||||
|
||||
30201120,
|
||||
11210120,
|
||||
11201121,
|
||||
1010201011102020,
|
||||
30201120,
|
||||
11210120,
|
||||
11201121,
|
||||
1010201011102020,
|
||||
|
||||
#GOGOSTART
|
||||
10112101,
|
||||
#MEASURE 3/4
|
||||
102010201110,
|
||||
#MEASURE 4/4
|
||||
10112101,
|
||||
#MEASURE 3/4
|
||||
102010201111,
|
||||
#MEASURE 4/4
|
||||
10112101,
|
||||
#MEASURE 3/4
|
||||
102010201110,
|
||||
#MEASURE 4/4
|
||||
500000000000000000000000000000000000000008000000,
|
||||
70000008,
|
||||
#GOGOEND
|
||||
|
||||
#MEASURE 3/4
|
||||
#SCROLL 0.75
|
||||
200222,
|
||||
202202,
|
||||
202202,
|
||||
202,
|
||||
200202,
|
||||
222,
|
||||
202202,
|
||||
200222,
|
||||
|
||||
200222,
|
||||
202202,
|
||||
202202,
|
||||
202,
|
||||
200202,
|
||||
222,
|
||||
202202,
|
||||
2,
|
||||
|
||||
5,
|
||||
000000000000000000000000000000000008,
|
||||
#MEASURE 4/4
|
||||
,
|
||||
|
||||
#SCROLL 1
|
||||
30201120,
|
||||
10211120,
|
||||
10201120,
|
||||
1000201011102020,
|
||||
30201120,
|
||||
10211120,
|
||||
10201120,
|
||||
1010201011102020,
|
||||
|
||||
30201120,
|
||||
10211120,
|
||||
10201120,
|
||||
1000201011102020,
|
||||
30201120,
|
||||
10211120,
|
||||
10201120,
|
||||
1010201011102020,
|
||||
|
||||
30403033,
|
||||
100000100000200000200000500000000000000008000000,
|
||||
|
||||
#GOGOSTART
|
||||
1000111020020020,
|
||||
1001001110002220,
|
||||
1000111020020020,
|
||||
500000000000000000000000000000000000000008000000,
|
||||
2220202010102000,
|
||||
1110202010102000,
|
||||
2220202010102020,
|
||||
3003003003004030,
|
||||
|
||||
1000002220020020,
|
||||
1001001001002220,
|
||||
1010202010102222,
|
||||
000000500000000000000000000000000000000008000000,
|
||||
1020101110201020,
|
||||
1020102011102220,
|
||||
500000000000000000000000000000000000000008000000,
|
||||
6008,
|
||||
#GOGOEND
|
||||
|
||||
30201120,
|
||||
11210120,
|
||||
10201120,
|
||||
1010201011102020,
|
||||
30201120,
|
||||
11210120,
|
||||
10201120,
|
||||
1010201011102020,
|
||||
|
||||
30201120,
|
||||
11210120,
|
||||
11201121,
|
||||
1010201011102020,
|
||||
30201120,
|
||||
11210120,
|
||||
11201121,
|
||||
1010201011102020,
|
||||
|
||||
3,
|
||||
#END
|
||||
|
||||
COURSE:Normal
|
||||
LEVEL:7
|
||||
BALLOON:13,13,6
|
||||
SCOREINIT:570
|
||||
SCOREDIFF:145
|
||||
|
||||
#START
|
||||
#BARLINEOFF
|
||||
#MEASURE 1/4
|
||||
,
|
||||
|
||||
#BARLINEON
|
||||
#MEASURE 4/4
|
||||
10010010,
|
||||
01001001,
|
||||
05000008,
|
||||
500000000000000000000000000000000008000000000000,
|
||||
3000000000000300,
|
||||
,
|
||||
7,
|
||||
0008,
|
||||
|
||||
30201120,
|
||||
10210120,
|
||||
10201120,
|
||||
10210120,
|
||||
30201120,
|
||||
10210120,
|
||||
10201120,
|
||||
10210120,
|
||||
|
||||
30201120,
|
||||
10210120,
|
||||
10201120,
|
||||
10211120,
|
||||
30201120,
|
||||
10210120,
|
||||
10201120,
|
||||
10211120,
|
||||
|
||||
#GOGOSTART
|
||||
500000000000000000000000000000000008000000000000,
|
||||
#MEASURE 3/4
|
||||
333,
|
||||
#MEASURE 4/4
|
||||
500000000000000000000000000000000008000000000000,
|
||||
#MEASURE 3/4
|
||||
333,
|
||||
#MEASURE 4/4
|
||||
500000000000000000000000000000000008000000000000,
|
||||
#MEASURE 3/4
|
||||
333,
|
||||
#MEASURE 4/4
|
||||
7,
|
||||
0008,
|
||||
#GOGOEND
|
||||
|
||||
#MEASURE 3/4
|
||||
#SCROLL 0.75
|
||||
2,
|
||||
2,
|
||||
202202,
|
||||
2,
|
||||
2,
|
||||
2,
|
||||
202202,
|
||||
2,
|
||||
|
||||
2,
|
||||
2,
|
||||
202202,
|
||||
2,
|
||||
2,
|
||||
2,
|
||||
202202,
|
||||
2,
|
||||
|
||||
5,
|
||||
000000000000000000000000000000000008,
|
||||
#MEASURE 4/4
|
||||
,
|
||||
|
||||
#SCROLL 1
|
||||
30201120,
|
||||
10211020,
|
||||
10201120,
|
||||
10211120,
|
||||
30201120,
|
||||
10211020,
|
||||
10201120,
|
||||
10211120,
|
||||
|
||||
30201120,
|
||||
10211020,
|
||||
10201120,
|
||||
10211122,
|
||||
30201120,
|
||||
10211020,
|
||||
10201120,
|
||||
10211122,
|
||||
|
||||
30303033,
|
||||
500000000000000000000000000000000008000000000000,
|
||||
|
||||
#GOGOSTART
|
||||
10112020,
|
||||
10112020,
|
||||
10222020,
|
||||
10201120,
|
||||
11101110,
|
||||
11221120,
|
||||
11102220,
|
||||
7008,
|
||||
|
||||
10201120,
|
||||
10221020,
|
||||
10201120,
|
||||
000000500000000000000000000000000008000000000000,
|
||||
11201120,
|
||||
11221122,
|
||||
6,
|
||||
0008,
|
||||
#GOGOEND
|
||||
|
||||
30201120,
|
||||
10210120,
|
||||
10201120,
|
||||
10210120,
|
||||
30201120,
|
||||
10210120,
|
||||
10201120,
|
||||
10210120,
|
||||
|
||||
30201120,
|
||||
10210120,
|
||||
10201120,
|
||||
10211120,
|
||||
30201120,
|
||||
10210120,
|
||||
10201120,
|
||||
10211120,
|
||||
|
||||
3,
|
||||
#END
|
||||
|
||||
COURSE:Easy
|
||||
LEVEL:5
|
||||
BALLOON:11,11,4
|
||||
SCOREINIT:430
|
||||
SCOREDIFF:115
|
||||
|
||||
#START
|
||||
#BARLINEOFF
|
||||
#MEASURE 1/4
|
||||
,
|
||||
|
||||
#BARLINEON
|
||||
#MEASURE 4/4
|
||||
,
|
||||
,
|
||||
05000000,
|
||||
000000000000000000000000000008000000000000000000
|
||||
3000000000000300,
|
||||
,
|
||||
7,
|
||||
0800,
|
||||
|
||||
3011,
|
||||
1011,
|
||||
1011,
|
||||
1022,
|
||||
3011,
|
||||
1011,
|
||||
1011,
|
||||
1022,
|
||||
|
||||
30001110,
|
||||
1011,
|
||||
20002220,
|
||||
2022,
|
||||
30001110,
|
||||
1011,
|
||||
20002220,
|
||||
2022,
|
||||
|
||||
#GOGOSTART
|
||||
500000000000000000000000000008000000000000000000,
|
||||
#MEASURE 3/4
|
||||
333,
|
||||
#MEASURE 4/4
|
||||
500000000000000000000000000008000000000000000000,
|
||||
#MEASURE 3/4
|
||||
333,
|
||||
#MEASURE 4/4
|
||||
500000000000000000000000000008000000000000000000,
|
||||
#MEASURE 3/4
|
||||
333,
|
||||
#MEASURE 4/4
|
||||
7,
|
||||
00000800,
|
||||
#GOGOEND
|
||||
|
||||
#MEASURE 3/4
|
||||
#SCROLL 0.75
|
||||
2,
|
||||
2,
|
||||
22,
|
||||
2,
|
||||
2,
|
||||
2,
|
||||
22,
|
||||
2,
|
||||
|
||||
2,
|
||||
2,
|
||||
22,
|
||||
2,
|
||||
2,
|
||||
2,
|
||||
22,
|
||||
2,
|
||||
|
||||
5,
|
||||
000000000000000000000000000000000008,
|
||||
#MEASURE 4/4
|
||||
,
|
||||
|
||||
#SCROLL 1
|
||||
3011,
|
||||
10111000,
|
||||
1011,
|
||||
10111010,
|
||||
3011,
|
||||
10111000,
|
||||
1011,
|
||||
10111010,
|
||||
|
||||
3012,
|
||||
10111000,
|
||||
1012,
|
||||
10111010,
|
||||
3012,
|
||||
10111000,
|
||||
1012,
|
||||
10111010,
|
||||
|
||||
3333,
|
||||
500000000000000000000000000008000000000000000000,
|
||||
|
||||
#GOGOSTART
|
||||
11,
|
||||
10111010,
|
||||
12,
|
||||
20222020,
|
||||
1122,
|
||||
1120,
|
||||
10101110,
|
||||
7008,
|
||||
|
||||
1011,
|
||||
10111010,
|
||||
20202220,
|
||||
000000500000000000000000000008000000000000000000,
|
||||
1122,
|
||||
11102220,
|
||||
6,
|
||||
00000800,
|
||||
#GOGOEND
|
||||
|
||||
3011,
|
||||
1011,
|
||||
1011,
|
||||
1022,
|
||||
3011,
|
||||
1011,
|
||||
1011,
|
||||
1022,
|
||||
|
||||
30001110,
|
||||
1011,
|
||||
20002220,
|
||||
2022,
|
||||
30001110,
|
||||
1011,
|
||||
20002220,
|
||||
2022,
|
||||
|
||||
3,
|
||||
#END
|
||||
Reference in New Issue
Block a user