tja
This commit is contained in:
415
tja/773.tja
Normal file
415
tja/773.tja
Normal file
@@ -0,0 +1,415 @@
|
||||
//TJADB Project
|
||||
TITLE:Inochi Mijikashi Koiseyo Otome
|
||||
TITLEJA:命短し恋せよ乙女
|
||||
SUBTITLE:--MOSHIMO
|
||||
SUBTITLEJA:MOSHIMO
|
||||
BPM:165.85
|
||||
WAVE:Inochi Mijikashi Koiseyo Otome.ogg
|
||||
OFFSET:-1.544
|
||||
DEMOSTART:72.413
|
||||
|
||||
COURSE:Oni
|
||||
LEVEL:7
|
||||
SCOREINIT:580
|
||||
SCOREDIFF:163
|
||||
|
||||
|
||||
#START
|
||||
|
||||
|
||||
11010222,
|
||||
#BPMCHANGE 169.11
|
||||
#SCROLL 0.98
|
||||
11010220,
|
||||
#BPMCHANGE 165.06
|
||||
#SCROLL 1
|
||||
11010222,
|
||||
#BPMCHANGE 164.06
|
||||
#SCROLL 1.01
|
||||
30303011,
|
||||
|
||||
#GOGOSTART
|
||||
#BPMCHANGE 166
|
||||
#SCROLL 1
|
||||
1020112010201120,
|
||||
1020112000201120,
|
||||
1020112010201120,
|
||||
1020112000201120,
|
||||
1020112010201120,
|
||||
1020112000201120,
|
||||
1020112010201120,
|
||||
1020112000201020,//12
|
||||
|
||||
#GOGOEND
|
||||
1010200011102000,
|
||||
11211020,
|
||||
1010200011102000,
|
||||
11211020,
|
||||
1010200011102000,
|
||||
11211020,
|
||||
1010200011102000,
|
||||
#BPMCHANGE 169
|
||||
#SCROLL 0.98
|
||||
1020222210001010,
|
||||
|
||||
#GOGOSTART
|
||||
#BPMCHANGE 165.73
|
||||
#SCROLL 1
|
||||
1020112010201120,
|
||||
1020112000201120,
|
||||
1020112010201120,
|
||||
1020112000201020,
|
||||
|
||||
#GOGOEND
|
||||
1010200011102000,
|
||||
1010202010002220,
|
||||
1010200011102000,
|
||||
1010202010002220,
|
||||
1010200011102000,
|
||||
1010202010002220,
|
||||
1010200011102000,
|
||||
#BPMCHANGE 167.3
|
||||
#SCROLL 0.99
|
||||
1010202010102220,
|
||||
#BPMCHANGE 164.72
|
||||
#SCROLL 1
|
||||
12021202,
|
||||
#BPMCHANGE 166
|
||||
1020002010221020,
|
||||
12021202,
|
||||
1020002010221020,
|
||||
12021212,
|
||||
12021212,
|
||||
1022100010221000,
|
||||
3333,
|
||||
#BPMCHANGE 167.28
|
||||
#SCROLL 0.99
|
||||
,
|
||||
|
||||
#GOGOSTART
|
||||
#BPMCHANGE 164.74
|
||||
#SCROLL 1
|
||||
3000300030002011,
|
||||
#BPMCHANGE 166
|
||||
1020111020000000,
|
||||
3000300030002011,
|
||||
1020111020001000,
|
||||
1000201000112010,
|
||||
1000201000112010,
|
||||
1000200011102000,
|
||||
1000200011102000,
|
||||
1120102010202020,
|
||||
1120102010202000,
|
||||
1120102010202020,
|
||||
#BPMCHANGE 167.71
|
||||
#SCROLL 0.98
|
||||
12101210,
|
||||
#BPMCHANGE 164.33
|
||||
#SCROLL 1.01
|
||||
1120102010202020,
|
||||
#BPMCHANGE 166.93
|
||||
#SCROLL 0.99
|
||||
1120102010202000,
|
||||
#BPMCHANGE 167.63
|
||||
1120102010202020,
|
||||
|
||||
#GOGOEND
|
||||
#BPMCHANGE 164.9
|
||||
#SCROLL 1
|
||||
30404011,
|
||||
|
||||
#GOGOSTART
|
||||
#BPMCHANGE 164.58
|
||||
1020112010201120,
|
||||
#BPMCHANGE 166.85
|
||||
#SCROLL 0.99
|
||||
1020112000201120,
|
||||
1020112010201120,
|
||||
1020112000201120,
|
||||
#BPMCHANGE 164.82
|
||||
#SCROLL 1
|
||||
1020112010221020,
|
||||
#BPMCHANGE 167.88
|
||||
#SCROLL 0.98
|
||||
1020112010221020,
|
||||
#BPMCHANGE 165.06
|
||||
#SCROLL 1
|
||||
1020100010221020,
|
||||
#BPMCHANGE 167.96
|
||||
#SCROLL 0.98
|
||||
3330,
|
||||
|
||||
#GOGOEND
|
||||
|
||||
|
||||
#END
|
||||
|
||||
|
||||
COURSE:Hard
|
||||
LEVEL:5
|
||||
BALLOON:5,5,17
|
||||
SCOREINIT:730
|
||||
SCOREDIFF:210
|
||||
|
||||
#START
|
||||
1,
|
||||
1,
|
||||
1,
|
||||
30303011,//4
|
||||
|
||||
#GOGOSTART
|
||||
10111011,
|
||||
500000000000000000000008000000000000100000100000,
|
||||
10111011,
|
||||
500000000000000000000008000000000000100000100000,
|
||||
10111011,
|
||||
500000000000000000000008000000000000100000100000,
|
||||
10111011,
|
||||
7008,//12
|
||||
|
||||
#GOGOEND
|
||||
1212,
|
||||
1202,
|
||||
1212,
|
||||
1202,
|
||||
1212,
|
||||
1202,
|
||||
1212,
|
||||
10000011,//20
|
||||
|
||||
#GOGOSTART
|
||||
10111011,
|
||||
500000000000000000000008000000000000100000100000,
|
||||
10111011,
|
||||
7008,//24
|
||||
|
||||
#GOGOEND
|
||||
1212,
|
||||
10201022,
|
||||
1212,
|
||||
10201022,
|
||||
1212,
|
||||
10201022,
|
||||
1212,
|
||||
10201120,
|
||||
12101210,
|
||||
12101120,
|
||||
12101210,
|
||||
12101120,
|
||||
5,
|
||||
000000000008000000000000000000000000100000000000,
|
||||
11,
|
||||
3333,
|
||||
,//41
|
||||
|
||||
#GOGOSTART
|
||||
30303022,
|
||||
02202000,
|
||||
30303022,
|
||||
02202000,
|
||||
10210120,
|
||||
10210120,
|
||||
1212,
|
||||
10201120,
|
||||
10201120,
|
||||
10201220,
|
||||
10201120,
|
||||
1220,
|
||||
10201120,
|
||||
10201220,
|
||||
10201120,//56
|
||||
|
||||
#GOGOEND
|
||||
30404011,//57
|
||||
|
||||
#GOGOSTART
|
||||
10111011,
|
||||
500000000000000000000008000000000000100000100000,
|
||||
10111011,
|
||||
500000000000000000000008000000000000000000000000,
|
||||
7,
|
||||
0008,
|
||||
12101210,
|
||||
3330,//65
|
||||
|
||||
#GOGOEND
|
||||
,
|
||||
#END
|
||||
|
||||
COURSE:Normal
|
||||
LEVEL:3
|
||||
BALLOON:5,4,13
|
||||
|
||||
#START
|
||||
1,
|
||||
1,
|
||||
1,
|
||||
3330,//4
|
||||
|
||||
#GOGOSTART
|
||||
1110,
|
||||
500000000000000000000008000000000000000000000000,
|
||||
1110,
|
||||
500000000000000000000008000000000000000000000000,
|
||||
1110,
|
||||
500000000000000000000008000000000000000000000000,
|
||||
1110,
|
||||
7008,//12
|
||||
|
||||
#GOGOEND
|
||||
11,
|
||||
1,
|
||||
11,
|
||||
1,
|
||||
12,
|
||||
1,
|
||||
12,
|
||||
1,//20
|
||||
|
||||
#GOGOSTART
|
||||
1110,
|
||||
500000000000000000000008000000000000000000000000,
|
||||
1110,
|
||||
7008,//24
|
||||
|
||||
#GOGOEND
|
||||
22,
|
||||
2,
|
||||
22,
|
||||
2,
|
||||
12,
|
||||
1,
|
||||
12,
|
||||
1,
|
||||
1111,
|
||||
02,
|
||||
1111,
|
||||
02,
|
||||
5,
|
||||
000000000008000000000000000000000000100000000000,
|
||||
11,
|
||||
3333,
|
||||
,//41
|
||||
|
||||
#GOGOSTART
|
||||
3330,
|
||||
02,
|
||||
3330,
|
||||
02,
|
||||
1002,
|
||||
1002,
|
||||
12,
|
||||
1110,
|
||||
1120,
|
||||
1122,
|
||||
1120,
|
||||
1120,
|
||||
1120,
|
||||
1122,
|
||||
1120,//56
|
||||
|
||||
#GOGOEND
|
||||
3330,//57
|
||||
|
||||
#GOGOSTART
|
||||
1110,
|
||||
500000000000000000000008000000000000000000000000,
|
||||
1110,
|
||||
500000000000000000000008000000000000000000000000,
|
||||
7,
|
||||
0008,
|
||||
1111,
|
||||
3330,//65
|
||||
|
||||
#GOGOEND
|
||||
,
|
||||
#END
|
||||
|
||||
COURSE:Easy
|
||||
LEVEL:3
|
||||
BALLOON:4,4,11
|
||||
|
||||
#START
|
||||
1,
|
||||
1,
|
||||
1,
|
||||
3330,//4
|
||||
|
||||
#GOGOSTART
|
||||
11,
|
||||
500000000000000000000008000000000000000000000000,
|
||||
11,
|
||||
500000000000000000000008000000000000000000000000,
|
||||
11,
|
||||
500000000000000000000008000000000000000000000000,
|
||||
11,
|
||||
7008,//12
|
||||
|
||||
#GOGOEND
|
||||
1,
|
||||
1,
|
||||
1,
|
||||
1,
|
||||
11,
|
||||
1,
|
||||
11,
|
||||
1,//20
|
||||
|
||||
#GOGOSTART
|
||||
11,
|
||||
500000000000000000000008000000000000000000000000,
|
||||
11,
|
||||
7008,//24
|
||||
|
||||
#GOGOEND
|
||||
2,
|
||||
2,
|
||||
2,
|
||||
2,
|
||||
22,
|
||||
2,
|
||||
22,
|
||||
2,
|
||||
1,
|
||||
02,
|
||||
1,
|
||||
02,
|
||||
5,
|
||||
000000000008000000000000000000000000000000000000,
|
||||
11,
|
||||
3333,
|
||||
,//41
|
||||
|
||||
#GOGOSTART
|
||||
3330,
|
||||
02,
|
||||
3330,
|
||||
02,
|
||||
1,
|
||||
1,
|
||||
11,
|
||||
1110,
|
||||
11,
|
||||
1110,
|
||||
11,
|
||||
1110,
|
||||
22,
|
||||
1110,
|
||||
22,//56
|
||||
|
||||
#GOGOEND
|
||||
3330,//57
|
||||
|
||||
#GOGOSTART
|
||||
11,
|
||||
500000000000000000000008000000000000000000000000,
|
||||
11,
|
||||
500000000000000000000008000000000000000000000000,
|
||||
7,
|
||||
0008,
|
||||
11,
|
||||
3330,//65
|
||||
|
||||
#GOGOEND
|
||||
,
|
||||
#END
|
||||
Reference in New Issue
Block a user