tja
This commit is contained in:
450
tja/779.tja
Normal file
450
tja/779.tja
Normal file
@@ -0,0 +1,450 @@
|
||||
//TJADB Project
|
||||
TITLE:Clotho
|
||||
TITLEJA:Clotho クロートー
|
||||
SUBTITLE:--Tatsh a.k.a. Zeami feat. Yu Oda
|
||||
SUBTITLEJA:Tatsh feat.小田ユウ
|
||||
BPM:185
|
||||
WAVE:Clotho.ogg
|
||||
OFFSET:-1.573
|
||||
DEMOSTART:60.600
|
||||
|
||||
COURSE:Oni
|
||||
LEVEL:10
|
||||
SCOREINIT:350
|
||||
SCOREDIFF:88
|
||||
|
||||
|
||||
#START
|
||||
|
||||
|
||||
2220222022202220,
|
||||
2220222022202220,
|
||||
2220222022202220,
|
||||
2220222022202220,
|
||||
1210221012102210,
|
||||
1210221012102210,
|
||||
1210221012102210,
|
||||
4011111111111120,//8
|
||||
|
||||
#GOGOSTART
|
||||
1110201111202011,
|
||||
1110201111201022,
|
||||
1110201111202011,
|
||||
1110201122111000,
|
||||
1110201111202011,
|
||||
1110201111201022,
|
||||
1110201111202011,
|
||||
1110201122111000,
|
||||
1120102210201122,
|
||||
1000001022222222,//18
|
||||
|
||||
#GOGOEND
|
||||
1010200010102011,
|
||||
1010201010102012,
|
||||
1010200010102011,
|
||||
1010201010102012,
|
||||
1010200010102011,
|
||||
1010201010102012,
|
||||
1010202210102211,
|
||||
1040000011101111,
|
||||
1010201110102011,
|
||||
1010201110102012,
|
||||
1010201110102011,
|
||||
1010201110201122,
|
||||
1020102210201120,
|
||||
1020102210201121,
|
||||
1020102210201120,
|
||||
1010200021212121,
|
||||
20211020,
|
||||
1010201011102220,
|
||||
10211020,
|
||||
1010201011102211,
|
||||
10211020,
|
||||
1020201011102220,
|
||||
1010201011102010,
|
||||
1020201011202022,
|
||||
1020102210201121,
|
||||
1020102210201122,
|
||||
1110111011111111,
|
||||
1111111100000000,//46
|
||||
|
||||
#GOGOSTART
|
||||
1021102211011020,
|
||||
1021102211011020,
|
||||
1021102211211020,
|
||||
1021102211211020,
|
||||
1021102211011020,
|
||||
1021102211011020,
|
||||
1021102211211020,
|
||||
1021100011221121,
|
||||
1020112010221020,
|
||||
1020112011211020,
|
||||
1020112010221020,
|
||||
1020112011211020,
|
||||
1021102010211120,
|
||||
1021102011211120,
|
||||
1021102010211120,
|
||||
1021102011211000,
|
||||
1111102011211022,
|
||||
1121102111211120,
|
||||
1111102011211022,
|
||||
1121102111211120,
|
||||
1111102011211022,
|
||||
1120112011201121,
|
||||
1010021110100211,
|
||||
1021101012221210,//70
|
||||
|
||||
#GOGOEND
|
||||
30230221,
|
||||
3000021000102010,
|
||||
30230221,
|
||||
3000203000102011,
|
||||
12221222,
|
||||
100200200200200200200200500000000000000008000000,//76
|
||||
|
||||
#GOGOSTART
|
||||
1122121211221212,
|
||||
1122112211211211,
|
||||
2211221122112211,
|
||||
1122112211211211,
|
||||
2022112110112211,
|
||||
1011201110112110,
|
||||
2211211011221110,
|
||||
1122121211221212,
|
||||
1122112212212212,
|
||||
2212121122121211,
|
||||
1122112212212212,
|
||||
1222121212221212,//88
|
||||
|
||||
#GOGOEND
|
||||
1,
|
||||
|
||||
|
||||
#END
|
||||
|
||||
|
||||
COURSE:Hard
|
||||
LEVEL:7
|
||||
BALLOON:21,20
|
||||
SCOREINIT:360
|
||||
SCOREDIFF:100
|
||||
|
||||
#START
|
||||
3,
|
||||
2,
|
||||
2,
|
||||
2,
|
||||
11,
|
||||
22,
|
||||
22,
|
||||
500000000000000000000000000000000000000008000000,//8
|
||||
|
||||
#GOGOSTART
|
||||
1000101110202000,
|
||||
1000101110201000,
|
||||
1000101110202000,
|
||||
1000101110201000,
|
||||
1000101110202000,
|
||||
1000101110201000,
|
||||
1000101110202000,
|
||||
1000101110201000,
|
||||
7,
|
||||
08,//18
|
||||
|
||||
#GOGOEND
|
||||
10201120,
|
||||
10211120,
|
||||
10201120,
|
||||
1000201010102011,
|
||||
10201120,
|
||||
10211120,
|
||||
1000200010102011,
|
||||
1040000010101011,
|
||||
10201121,
|
||||
10211121,
|
||||
10201121,
|
||||
1000201010102011,
|
||||
1000201110102011,
|
||||
1000201110102011,
|
||||
1000201110102011,
|
||||
1010200011101110,
|
||||
30211020,
|
||||
11201121,
|
||||
10211020,
|
||||
1010200010102220,
|
||||
10211020,
|
||||
11201121,
|
||||
10211120,
|
||||
1010201011102020,
|
||||
30223022,
|
||||
3360,
|
||||
000000000000000000000000000000000000000008000000,
|
||||
,//46
|
||||
|
||||
#GOGOSTART
|
||||
1000102011101020,
|
||||
1000102011101020,
|
||||
1000102011101020,
|
||||
1020100011102220,
|
||||
1000102011101020,
|
||||
1000102011101020,
|
||||
1000102011101020,
|
||||
1020100011102220,
|
||||
10221122,
|
||||
1110202011102020,
|
||||
10221122,
|
||||
1110202011102020,
|
||||
1000102011101020,
|
||||
1000102011101020,
|
||||
1000102011101020,
|
||||
1000102011101000,
|
||||
11221122,
|
||||
1110202011102000,
|
||||
11221122,
|
||||
1110202011102000,
|
||||
11221122,
|
||||
1110202011102020,
|
||||
10011000,
|
||||
1001101010101110,//70
|
||||
|
||||
#GOGOEND
|
||||
30030220,
|
||||
30030220,
|
||||
30030220,
|
||||
30030220,
|
||||
7,
|
||||
08,//76
|
||||
|
||||
#GOGOSTART
|
||||
1110101011101000,
|
||||
2220202022202000,
|
||||
11221122,
|
||||
1010202011101000,
|
||||
1011101010111000,
|
||||
2022202020222000,
|
||||
11221122,
|
||||
1110202011102000,
|
||||
1110202011102000,
|
||||
1110202011102020,
|
||||
1110202011102020,
|
||||
1110222011102220,//88
|
||||
|
||||
#GOGOEND
|
||||
3,
|
||||
#END
|
||||
|
||||
COURSE:Normal
|
||||
LEVEL:7
|
||||
BALLOON:14,14
|
||||
|
||||
#START
|
||||
3,
|
||||
1,
|
||||
1,
|
||||
1,
|
||||
11,
|
||||
22,
|
||||
22,
|
||||
500000000000000000000000000000000008000000000000,//8
|
||||
|
||||
#GOGOSTART
|
||||
30101210,
|
||||
10101210,
|
||||
10101210,
|
||||
10102210,
|
||||
10101210,
|
||||
10101210,
|
||||
10101210,
|
||||
10102210,
|
||||
7,
|
||||
08,//18
|
||||
|
||||
#GOGOEND
|
||||
10201120,
|
||||
10211020,
|
||||
10201120,
|
||||
10211020,
|
||||
10201120,
|
||||
10211020,
|
||||
10201120,
|
||||
11001111,
|
||||
10201120,
|
||||
10211020,
|
||||
10201120,
|
||||
10211011,
|
||||
10201120,
|
||||
10211011,
|
||||
10201120,
|
||||
11101111,
|
||||
3122,
|
||||
1122,
|
||||
1122,
|
||||
10102220,
|
||||
1122,
|
||||
1122,
|
||||
1122,
|
||||
10101111,
|
||||
1212,
|
||||
3360,
|
||||
000000000000000000000000000000000000000008000000,
|
||||
,//46
|
||||
|
||||
#GOGOSTART
|
||||
10211020,
|
||||
10201120,
|
||||
10211020,
|
||||
10201122,
|
||||
10211020,
|
||||
10201120,
|
||||
10211020,
|
||||
10201122,
|
||||
10211022,
|
||||
10211022,
|
||||
10211022,
|
||||
10211020,
|
||||
10201120,
|
||||
10201120,
|
||||
10201120,
|
||||
10201120,
|
||||
10101110,
|
||||
11101120,
|
||||
10101110,
|
||||
11101120,
|
||||
10101110,
|
||||
11101120,
|
||||
10011000,
|
||||
500000000000000000000000000000000008000000000000,//70
|
||||
|
||||
#GOGOEND
|
||||
30030220,
|
||||
30030220,
|
||||
30030220,
|
||||
30030220,
|
||||
7,
|
||||
08,//76
|
||||
|
||||
#GOGOSTART
|
||||
11101110,
|
||||
11102220,
|
||||
11101110,
|
||||
11102220,
|
||||
10101120,
|
||||
20202220,
|
||||
10101120,
|
||||
11101110,
|
||||
22202220,
|
||||
11201120,
|
||||
11201120,
|
||||
11111111,//88
|
||||
|
||||
#GOGOEND
|
||||
3,
|
||||
#END
|
||||
|
||||
COURSE:Easy
|
||||
LEVEL:5
|
||||
BALLOON:10,10
|
||||
|
||||
#START
|
||||
3,
|
||||
1,
|
||||
1,
|
||||
1,
|
||||
1,
|
||||
2,
|
||||
2,
|
||||
500000000000000000000000000008000000000000000000,//8
|
||||
|
||||
#GOGOSTART
|
||||
3110,
|
||||
1110,
|
||||
1110,
|
||||
2220,
|
||||
1110,
|
||||
1110,
|
||||
1110,
|
||||
2220,
|
||||
7,
|
||||
08,//18
|
||||
|
||||
#GOGOEND
|
||||
11,
|
||||
1011,
|
||||
11,
|
||||
1011,
|
||||
11,
|
||||
1011,
|
||||
12,
|
||||
500000000000000000000000000008000000000000000000,
|
||||
1011,
|
||||
1011,
|
||||
1011,
|
||||
10001011,
|
||||
1011,
|
||||
10001011,
|
||||
1011,
|
||||
500000000000000000000000000008000000000000000000,
|
||||
31,
|
||||
1011,
|
||||
12,
|
||||
1022,
|
||||
11,
|
||||
1011,
|
||||
12,
|
||||
1022,
|
||||
11,
|
||||
3360,
|
||||
000000000000000000000000000000000000000008000000,
|
||||
,//46
|
||||
|
||||
#GOGOSTART
|
||||
1110,
|
||||
1110,
|
||||
1110,
|
||||
10101110,
|
||||
1110,
|
||||
1110,
|
||||
1110,
|
||||
1120,
|
||||
1011,
|
||||
11,
|
||||
2022,
|
||||
22,
|
||||
1111,
|
||||
1110,
|
||||
2222,
|
||||
2220,
|
||||
1111,
|
||||
10101110,
|
||||
1111,
|
||||
10101110,
|
||||
1111,
|
||||
10101110,
|
||||
11,
|
||||
500000000000000000000000000008000000000000000000,//70
|
||||
|
||||
#GOGOEND
|
||||
30030000,
|
||||
30030000,
|
||||
30030000,
|
||||
40040000,
|
||||
7,
|
||||
08,//76
|
||||
|
||||
#GOGOSTART
|
||||
11101010,
|
||||
11101010,
|
||||
22202020,
|
||||
22202020,
|
||||
1111,
|
||||
2222,
|
||||
1111,
|
||||
10101110,
|
||||
10101110,
|
||||
10101110,
|
||||
10101110,
|
||||
500000000000000000000000000008000000000000000000,//88
|
||||
|
||||
#GOGOEND
|
||||
3,
|
||||
#END
|
||||
Reference in New Issue
Block a user