tja
This commit is contained in:
533
tja/783.tja
Normal file
533
tja/783.tja
Normal file
@@ -0,0 +1,533 @@
|
||||
//TJADB Project
|
||||
TITLE:Dive to Blue
|
||||
TITLEJA:Dive to Blue
|
||||
SUBTITLE:--Tamaya 2060% feat. Aya Uchida/iMarine Project
|
||||
SUBTITLEJA:玉屋2060% アイマリン(CV:内田彩) 「アイマリンプロジェクト」より
|
||||
BPM:186
|
||||
WAVE:Dive to Blue.ogg
|
||||
OFFSET:-0.118
|
||||
DEMOSTART:64.230
|
||||
|
||||
COURSE:Oni
|
||||
LEVEL:8
|
||||
BALLOON:13
|
||||
SCOREINIT:360
|
||||
SCOREDIFF:110
|
||||
|
||||
|
||||
#START
|
||||
|
||||
|
||||
,
|
||||
,
|
||||
,
|
||||
,
|
||||
,
|
||||
,
|
||||
30000120,
|
||||
1111222211112222,//7
|
||||
|
||||
#GOGOSTART
|
||||
1022100220201120,
|
||||
1022100210201120,
|
||||
1022100220201120,
|
||||
1021202120221222,
|
||||
1022100220201120,
|
||||
1022100210201120,
|
||||
1022100220201120,
|
||||
1021202120221222,//15
|
||||
|
||||
#GOGOEND
|
||||
10211022,
|
||||
10211122,
|
||||
10211022,
|
||||
10221220,
|
||||
10201120,
|
||||
10221220,
|
||||
10201122,
|
||||
1022201010201122,
|
||||
10211022,
|
||||
10211122,
|
||||
10211022,
|
||||
10221220,
|
||||
10201120,
|
||||
10221220,
|
||||
10201121,
|
||||
0010201020102222,
|
||||
1000100010112010,
|
||||
1000100010222010,
|
||||
1000100010112010,
|
||||
1000100010222010,
|
||||
1000102010112010,
|
||||
1000102010222010,
|
||||
1000102010112030,
|
||||
0011202210112022,
|
||||
1010201110102010,
|
||||
0010201000102022,
|
||||
1010201110102010,
|
||||
0010201120102010,
|
||||
1000002010112000,
|
||||
1000002010222000,
|
||||
1010202011102020,
|
||||
500000000000000000000000000000000000000000000008,
|
||||
0,
|
||||
1111222211112222,//49
|
||||
|
||||
#GOGOSTART
|
||||
1022102010221020,
|
||||
1022102010222020,
|
||||
1021202010212020,
|
||||
1021201000222020,
|
||||
1020100012201120,
|
||||
1020100012201120,
|
||||
7008,
|
||||
2222,
|
||||
1022102010221020,
|
||||
1022102010222020,
|
||||
1021202010212020,
|
||||
1021201000222020,
|
||||
1020100012201120,
|
||||
1020100012201120,
|
||||
1020100012201120,//64
|
||||
|
||||
#GOGOEND
|
||||
500000000000000000000000000000000008000000000000,//65
|
||||
|
||||
#GOGOSTART
|
||||
3022202030222030,
|
||||
0030003020221220,
|
||||
3022202030222030,
|
||||
0030002210221220,
|
||||
3022202030222030,
|
||||
0030003020221220,
|
||||
3022202030222030,
|
||||
0030002210221220,
|
||||
3022102030222030,
|
||||
0030003020221220,
|
||||
3022102030222030,
|
||||
0030002210221220,
|
||||
3022102030222030,
|
||||
0030003020221220,
|
||||
3022102030222030,
|
||||
0030002210222222,//81
|
||||
|
||||
#GOGOEND
|
||||
20020020,
|
||||
,
|
||||
20020020,
|
||||
,
|
||||
22,
|
||||
20020020,
|
||||
#BPMCHANGE 180.44
|
||||
2
|
||||
#BPMCHANGE 178.98
|
||||
2
|
||||
#BPMCHANGE 155.78
|
||||
#SCROLL 1.15
|
||||
2
|
||||
#BPMCHANGE 159.24
|
||||
#SCROLL 1.13
|
||||
2,
|
||||
#BPMCHANGE 139.44
|
||||
#SCROLL 1
|
||||
2
|
||||
#BPMCHANGE 122.08
|
||||
#SCROLL 1.14
|
||||
2
|
||||
#BPMCHANGE 113.66
|
||||
#SCROLL 1.22
|
||||
2
|
||||
#BPMCHANGE 98.06
|
||||
#SCROLL 1.42
|
||||
2,
|
||||
#BPMCHANGE 72.74
|
||||
#SCROLL 1.5
|
||||
222200000000000000000000000000000000000000000000,
|
||||
|
||||
#END
|
||||
|
||||
COURSE:Hard
|
||||
LEVEL:3
|
||||
BALLOON:7,7,7,9,25
|
||||
SCOREINIT:490
|
||||
SCOREDIFF:140
|
||||
|
||||
#START
|
||||
,
|
||||
,
|
||||
,
|
||||
,
|
||||
,
|
||||
3,
|
||||
7008,//7
|
||||
|
||||
#GOGOSTART
|
||||
10102220,
|
||||
10102220,
|
||||
10102220,
|
||||
500000000000000000000000000000000008000000000000,
|
||||
10102220,
|
||||
10102220,
|
||||
10102220,
|
||||
7008,//15
|
||||
|
||||
#GOGOEND
|
||||
1210,
|
||||
10201120,
|
||||
1210,
|
||||
10201120,
|
||||
1210,
|
||||
10201120,
|
||||
1210,
|
||||
2,
|
||||
1210,
|
||||
10202220,
|
||||
1210,
|
||||
10202220,
|
||||
1210,
|
||||
10202220,
|
||||
10201004,
|
||||
,
|
||||
1112,
|
||||
10101120,
|
||||
1112,
|
||||
10101120,
|
||||
10112020,
|
||||
10112020,
|
||||
10112024,
|
||||
0444,
|
||||
10201120,
|
||||
1202,
|
||||
10201120,
|
||||
1202,
|
||||
10021020,
|
||||
10021020,
|
||||
11201120,
|
||||
500000000000000000000000000000000000000000000008,
|
||||
,
|
||||
7008,//49
|
||||
|
||||
#GOGOSTART
|
||||
3434,
|
||||
30201120,
|
||||
10221022,
|
||||
1,
|
||||
10201120,
|
||||
10201120,
|
||||
5,
|
||||
000000000008000000000000000000000000000000000000,
|
||||
3434,
|
||||
30201120,
|
||||
10221022,
|
||||
1,
|
||||
10201120,
|
||||
10201120,
|
||||
10201120,//64
|
||||
|
||||
#GOGOEND
|
||||
1,//65
|
||||
|
||||
#GOGOSTART
|
||||
30004003,
|
||||
03030040,
|
||||
30004003,
|
||||
03044000,
|
||||
30004003,
|
||||
03030040,
|
||||
30004003,
|
||||
03044000,
|
||||
30004003,
|
||||
03030040,
|
||||
30004003,
|
||||
03044000,
|
||||
30004003,
|
||||
03030040,
|
||||
30004007,
|
||||
0008,//81
|
||||
|
||||
#GOGOEND
|
||||
2,
|
||||
,
|
||||
2,
|
||||
,
|
||||
22,
|
||||
2,
|
||||
#BPMCHANGE 175.7
|
||||
#SCROLL 1.059
|
||||
7
|
||||
#BPMCHANGE 157.8
|
||||
#SCROLL 1.179
|
||||
0,
|
||||
#BPMCHANGE 140.9
|
||||
#SCROLL 0.99
|
||||
0
|
||||
#BPMCHANGE 122.6
|
||||
#SCROLL 1.138
|
||||
0
|
||||
#BPMCHANGE 113.1
|
||||
#SCROLL 1.233
|
||||
0
|
||||
#BPMCHANGE 99.2
|
||||
#SCROLL 1.406
|
||||
8,
|
||||
#BPMCHANGE 80
|
||||
#SCROLL 1.511
|
||||
2,
|
||||
,
|
||||
#END
|
||||
|
||||
COURSE:Normal
|
||||
LEVEL:2
|
||||
BALLOON:5,5,5,6,15
|
||||
|
||||
#START
|
||||
,
|
||||
,
|
||||
,
|
||||
,
|
||||
,
|
||||
3,
|
||||
7008,//7
|
||||
|
||||
#GOGOSTART
|
||||
1120,
|
||||
1120,
|
||||
1120,
|
||||
500000000000000000000000000008000000000000000000,
|
||||
1120,
|
||||
1120,
|
||||
1120,
|
||||
7008,//15
|
||||
|
||||
#GOGOEND
|
||||
11,
|
||||
1,
|
||||
11,
|
||||
2,
|
||||
11,
|
||||
1,
|
||||
11,
|
||||
2,
|
||||
11,
|
||||
1,
|
||||
11,
|
||||
2,
|
||||
11,
|
||||
1,
|
||||
10001004,
|
||||
,
|
||||
1110,
|
||||
2,
|
||||
1110,
|
||||
2,
|
||||
1110,
|
||||
1110,
|
||||
10101004,
|
||||
,
|
||||
1110,
|
||||
2,
|
||||
1110,
|
||||
2,
|
||||
11,
|
||||
11,
|
||||
1111,
|
||||
500000000000000000000000000000000000000000000008,
|
||||
,
|
||||
7008,//49
|
||||
|
||||
#GOGOSTART
|
||||
3333,
|
||||
3,
|
||||
1110,
|
||||
2,
|
||||
1120,
|
||||
1120,
|
||||
5,
|
||||
000000000008000000000000000000000000000000000000,
|
||||
3333,
|
||||
3,
|
||||
1110,
|
||||
2,
|
||||
1120,
|
||||
1120,
|
||||
1120,//64
|
||||
|
||||
#GOGOEND
|
||||
1,//65
|
||||
|
||||
#GOGOSTART
|
||||
30003006,
|
||||
000000000000000000000008000000000000000000000000,
|
||||
30003006,
|
||||
000000000008000000000000400000000000000000000000,
|
||||
30003006,
|
||||
000000000000000000000008000000000000000000000000,
|
||||
30003006,
|
||||
000000000008000000000000400000000000000000000000,
|
||||
30003006,
|
||||
000000000000000000000008000000000000000000000000,
|
||||
30003006,
|
||||
000000000008000000000000400000000000000000000000,
|
||||
30003006,
|
||||
000000000000000000000008000000000000000000000000,
|
||||
30004007,
|
||||
0008,//81
|
||||
|
||||
#GOGOEND
|
||||
2,
|
||||
,
|
||||
2,
|
||||
,
|
||||
22,
|
||||
2,
|
||||
#BPMCHANGE 175.7
|
||||
#SCROLL 1.059
|
||||
7
|
||||
#BPMCHANGE 157.8
|
||||
#SCROLL 1.179
|
||||
0,
|
||||
#BPMCHANGE 140.9
|
||||
#SCROLL 0.99
|
||||
0
|
||||
#BPMCHANGE 122.6
|
||||
#SCROLL 1.138
|
||||
0
|
||||
#BPMCHANGE 113.1
|
||||
#SCROLL 1.233
|
||||
0
|
||||
#BPMCHANGE 99.2
|
||||
#SCROLL 1.406
|
||||
8,
|
||||
#BPMCHANGE 80
|
||||
#SCROLL 1.511
|
||||
2,
|
||||
,
|
||||
#END
|
||||
|
||||
COURSE:Easy
|
||||
LEVEL:2
|
||||
BALLOON:4,4,4,4,4,12
|
||||
|
||||
#START
|
||||
,
|
||||
,
|
||||
,
|
||||
,
|
||||
,
|
||||
3,
|
||||
7008,//7
|
||||
|
||||
#GOGOSTART
|
||||
11,
|
||||
1,
|
||||
11,
|
||||
500000000000000000000000000008000000000000000000,
|
||||
11,
|
||||
1,
|
||||
11,
|
||||
7008,//15
|
||||
|
||||
#GOGOEND
|
||||
1,
|
||||
1,
|
||||
11,
|
||||
1,
|
||||
1,
|
||||
1,
|
||||
2,
|
||||
,
|
||||
1,
|
||||
1,
|
||||
11,
|
||||
1,
|
||||
1,
|
||||
1,
|
||||
2,
|
||||
,
|
||||
11,
|
||||
1,
|
||||
11,
|
||||
2,
|
||||
11,
|
||||
1,
|
||||
7008,
|
||||
,
|
||||
1,
|
||||
2,
|
||||
1,
|
||||
2,
|
||||
1,
|
||||
1,
|
||||
11,
|
||||
500000000000000000000000000000000000000000000008,
|
||||
,
|
||||
7008,//49
|
||||
|
||||
#GOGOSTART
|
||||
33,
|
||||
3,
|
||||
11,
|
||||
1,
|
||||
2,
|
||||
2,
|
||||
5,
|
||||
000000000008000000000000000000000000000000000000,
|
||||
33,
|
||||
3,
|
||||
11,
|
||||
1,
|
||||
2,
|
||||
2,
|
||||
2,//64
|
||||
|
||||
#GOGOEND
|
||||
1,//65
|
||||
|
||||
#GOGOSTART
|
||||
30003006,
|
||||
000000000000000000000008000000000000000000000000,
|
||||
30003006,
|
||||
000000000000000000000008000000000000000000000000,
|
||||
30003006,
|
||||
000000000000000000000008000000000000000000000000,
|
||||
40004006,
|
||||
000000000000000000000008000000000000000000000000,
|
||||
30003006,
|
||||
000000000000000000000008000000000000000000000000,
|
||||
30003006,
|
||||
000000000000000000000008000000000000000000000000,
|
||||
30003006,
|
||||
000000000000000000000008000000000000000000000000,
|
||||
40004007,
|
||||
0008,//81
|
||||
|
||||
#GOGOEND
|
||||
2,
|
||||
,
|
||||
2,
|
||||
,
|
||||
2,
|
||||
2,
|
||||
#BPMCHANGE 175.7
|
||||
#SCROLL 1.059
|
||||
7
|
||||
#BPMCHANGE 157.8
|
||||
#SCROLL 1.179
|
||||
0,
|
||||
#BPMCHANGE 140.9
|
||||
#SCROLL 0.99
|
||||
0
|
||||
#BPMCHANGE 122.6
|
||||
#SCROLL 1.138
|
||||
0
|
||||
#BPMCHANGE 113.1
|
||||
#SCROLL 1.233
|
||||
0
|
||||
#BPMCHANGE 99.2
|
||||
#SCROLL 1.406
|
||||
8,
|
||||
#BPMCHANGE 80
|
||||
#SCROLL 1.511
|
||||
2,
|
||||
|
||||
#END
|
||||
Reference in New Issue
Block a user