This commit is contained in:
2026-03-04 23:59:27 +09:00
parent 6e0312f5b4
commit 4b4e2b8c98
1128 changed files with 668765 additions and 0 deletions

596
tja/784.tja Normal file
View File

@@ -0,0 +1,596 @@
//TJADB Project
TITLE:Itadaki
TITLEJA:頂
SUBTITLE:--CHUBAY
SUBTITLEJA:CHUBAY
BPM:202
WAVE:Itadaki.ogg
OFFSET:-1.920
DEMOSTART:45.875
COURSE:Oni
LEVEL:10
SCOREINIT:400
SCOREDIFF:98
#START
#MEASURE 3/4
112121,
111,
112121,
102220102010,
112121,
111,
112121,
102220102010,
112121,
111,
112121,
101220102210,
112121,
111,
112122,
100022,
312,
100000102020100200,
101210,
100010201110,
300010201110,
100010201120,
#GOGOSTART
302302,
302302,
#MEASURE 2/4
10111020,
#GOGOEND
#MEASURE 3/4
312,
100000102020100200,
101210,
100020201110,
#GOGOSTART
302220101020,
300222200100100200,
#MEASURE 4/4
4022104022102211,
100100200200100100200200100100202020100000200000,
3001201011012010,
1001201011012010,
1111201011012211,
#GOGOEND
1000002221112211,
11011101,
000000100000100000000000500000080000100000000000,
11011101,
000000100000100000000000500000080000100000000000,
1110201110200011,
100000100100200000000000500000080000200000000000,
1110201110200011,
2,
#GOGOSTART
300000200200100000200000100000202020100000200000,
100000200200100000200000100000102020100000200000,
1012021020112210,
500000000000000000000000000008000000100100200200,
100000200200100000200000100000202020100000200000,
100000200200100000200000100000102020100000200000,
5,
000000000000000000000008000000000000100100200200,
100000200200100000200000100000202020100000200000,
100000200200100000200000100000102020100000200000,
1012021020112210,
1022112010221110,
100000202020100000200200100000200100000000100000,
100000202020100000200200100000200100000000100000,
100000202020100100200200100100200200100100200200,
1021021022111122,
#GOGOEND
10010010,
0010000010112000,
30101011,
1000111010011010,
10101011,
1000111010011010,
10101011,
1000111010011010,
10101011,
2011201122112000,
3002101010021010,
1021101012102002,
1011201211102012,
1022121120102212,
1002101010021011,
2010211121012010,
200100100100200100100100201010100100200100100100,
1000000021111010,
100000200200100000200000000000202020100000200000,
100000200200100000200000000000102020100000200000,
1121101122101111,
2,
#GOGOSTART
1222101222101120,
0010201210212010,
2111202111202210,
0010212010212010,
1222101222101120,
0010201210212010,
2111212111212111,
200000100200000200100000200000101010200000100000,
1222101222101122,
#GOGOEND
2111202000202210,
#GOGOSTART
1222101222102211,
#GOGOEND
2111202000201120,
#GOGOSTART
1122211122211121,
1122211122211121,
100000100200000200100000200000101010200000200200,
1111111122222222,
#MEASURE 3/4
212121,
100100100000100000101010100000100100,
212121,
101220102210,
212121,
100100100000100000101010100000100100,
212121,
101220102210,
#GOGOEND
#END
COURSE:Hard
LEVEL:8
BALLOON:20,23,11,8,20
SCOREINIT:450
SCOREDIFF:100
#START
#MEASURE 3/4
110110,
111,
110110,
111,
110110,
111,
110110,
111,
112121,
111,
112121,
101110102020,
112121,
111,
112122,
100022,
312,
102211,
101210,
102211,
302211,
102211,//22
#GOGOSTART
302302,
302302,
#MEASURE 2/4
1112,//25
#MEASURE 3/4
#GOGOEND
312,
102211,
101210,
102211,//29
#GOGOSTART
311111,
422222,
#MEASURE 4/4
7,
0008,
30201122,
11221122,
500000000000000000000000000000000000000000000008,//36
#GOGOEND
,
11011101,
000000100000100000000000500000000008000000000000,
11011101,
000000100000100000000000500000000008000000000000,
1110201010100010,
000000100000200000000000500000000008000000000000,
1110201010100010,
2,//43
#GOGOSTART
1010202000111020,
1010202000111020,
1011102010102020,
500000000000000000000000000008000000200000200000,
1010202000111020,
1010202000111020,
5,
000000000000000000000008000000000000200000200000,
1010202000111020,
1010202000111020,
1011102010102020,
11221120,
1022202220020020,
1022202220020020,
7,
,//61
#GOGOEND
8,
,
10101011,
10111010,
10101011,
1000111010001000,
10101011,
10111010,
10101011,
2010201011102000,
30211021,
1010201110002000,
10211020,
1010201110102000,
30211021,
1010201110102010,
500000000000000000000000000000000000000008000000,
2,
1010202000111020,
1010202000111020,
7,
8,//83
#GOGOSTART
2220102220102220,
02112110,
1110201110201110,
01121120,
2220102220102220,
02112110,
1110201110201110,
7008,
2220102220102220,//92
#GOGOEND
500000000000000000000000000000000000000008000000,//93
#GOGOSTART
2220102220102220,//94
#GOGOEND
500000000000000000000000000000000000000008000000,//95
#GOGOSTART
2011102011102010,
2011102011102010,
7,
0008,
#MEASURE 3/4
112121,
111,
112121,
101110102020,
112121,
111,
112121,
101110102020,//107
#GOGOEND
,
#END
COURSE:Normal
LEVEL:7
BALLOON:13,15,7,29
#START
#MEASURE 3/4
11,
,
11,
,
11,
,
11,
,
110110,
222,
110110,
222,
110110,
222,
110110,
2,
112,
102210,
112,
102210,
102210,
102210,//22
#GOGOSTART
33,
33,
#MEASURE 2/4
,//25
#MEASURE 3/4
#GOGOEND
112,
102210,
112,
102210,//29
#GOGOSTART
101110,
202220,
#MEASURE 4/4
7,
0008,
10201122,
10201122,
500000000000000000000000000000000000000000000008,//36
#GOGOEND
,
11011101,
000000100000100000000000500000000008000000000000,
11011101,
000000100000100000000000500000000008000000000000,
11011101,
000000100000100000000000500000000008000000000000,
11011101,
2,//45
#GOGOSTART
11220110,
11220110,
11221020,
500000000000000000000000000008000000000000000000,
11220110,
11220110,
5,
000000000000000000000008000000000000000000000000,
11220110,
11220110,
11221020,
500000000000000000000000000000000008000000000000,
12121010,
12121010,
9,
09,//61
#GOGOEND
8,
,
1111,
10111010,
1111,
10111010,
1111,
10111010,
1111,
4444,
10221020,
11221020,
10221020,
11221020,
10221010,
3333,
500000000000000000000000000000000000000000000008,
,
11220110,
11220110,
7,
8,//83
#GOGOSTART
11011022,
01112020,
33033044,
03334040,
11011022,
01112020,
33033044,
7008,
11011022,//92
#GOGOEND
500000000000000000000000000000000008000000000000,//93
#GOGOSTART
11011022,//94
#GOGOEND
500000000000000000000000000000000008000000000000,//95
#GOGOSTART
33033044,
33033044,
9,
,
#MEASURE 3/4
,
009,
,
8,
110110,
222,
110110,
202022,//107
#GOGOEND
,
#END
COURSE:Easy
LEVEL:5
BALLOON:10,11,5,22
#START
#MEASURE 3/4
11,
,
11,
,
11,
,
11,
,
11,
111,
11,
111,
11,
111,
11,
2,
111,
111,
111,
122,
122,
122,//22
#GOGOSTART
33,
33,
#MEASURE 2/4
,//25
#MEASURE 3/4
#GOGOEND
111,
111,
111,
122,//29
#GOGOSTART
122,
122,
#MEASURE 4/4
7,
0008,
10201110,
10201110,
500000000000000000000000000000000000000000000008,//36
#GOGOEND
,
11,
02,
11,
02,
11,
02,
11,
2,//45
#GOGOSTART
10110020,
10110020,
10111020,
500000000000000000000000000008000000000000000000,
10110020,
10110020,
5,
000000000000000000000008000000000000000000000000,
10110020,
10110020,
10111020,
500000000000000000000000000008000000000000000000,
3333,
3333,
9,
09,//61
#GOGOEND
8,
,
1110,
1110,
1111,
11,
1110,
1110,
1111,
4444,
10111000,
11101000,
10111010,
11101010,
3333,
3333,
500000000000000000000000000000000000000000000008,
,
10110020,
10110020,
7,
8,//83
#GOGOSTART
11011010,
01102020,
33033030,
03304040,
11011010,
01102020,
33033030,
7008,
11011010,//92
#GOGOEND
500000000000000000000000000008000000000000000000,//93
#GOGOSTART
11011010,//94
#GOGOEND
500000000000000000000000000008000000000000000000,//95
#GOGOSTART
33033030,
33033030,
9,
,
#MEASURE 3/4
,
009,
,
8,
11,
111,
11,
101011,//107
#GOGOEND
,
#END