tja
This commit is contained in:
509
tja/785.tja
Normal file
509
tja/785.tja
Normal file
@@ -0,0 +1,509 @@
|
||||
//TJADB Project
|
||||
TITLE:Youthful Coaster
|
||||
TITLEJA:ユースフルコースター
|
||||
SUBTITLE:--U-ske feat. Natsu Kazura
|
||||
SUBTITLEJA:U-ske feat. かずらなつ
|
||||
BPM:210
|
||||
WAVE:Youthful Coaster.ogg
|
||||
OFFSET:-1.311
|
||||
DEMOSTART:48.572
|
||||
|
||||
COURSE:Oni
|
||||
LEVEL:9
|
||||
BALLOON:22
|
||||
SCOREINIT:420
|
||||
SCOREDIFF:105
|
||||
|
||||
|
||||
#START
|
||||
|
||||
|
||||
10010010,
|
||||
0010002220202010,
|
||||
00100101,
|
||||
0010102220221011,
|
||||
1000101220201011,
|
||||
2010201110100050,
|
||||
000000000000000000000000000000000000000000000008,
|
||||
0000000000111000,
|
||||
1020102220001020,
|
||||
0020102220101000,
|
||||
1020102220201020,
|
||||
0020102210001000,
|
||||
2210300010201020,
|
||||
0020102222102210,
|
||||
1111201111201111,
|
||||
2011111040400000,
|
||||
20000001,
|
||||
,
|
||||
20000002,
|
||||
00020003,
|
||||
0121,
|
||||
2000100020001011,
|
||||
200000200100100000200000200000101010100000400000,
|
||||
0011100020112000,
|
||||
1011201010002010,
|
||||
0011201011201120,
|
||||
02122012,
|
||||
000000200200100000200000200200100200200000500008,
|
||||
000000000000400000000000200200200000200000500008,
|
||||
0000300011112010,
|
||||
2000201120001022,
|
||||
1000101120201000,
|
||||
300300222200000200300300,
|
||||
000200000300000222100000,
|
||||
300300222200000200300300,
|
||||
000100000400000111200000,
|
||||
400400111100000200300300,
|
||||
000400000300000222100000,
|
||||
1000101110001011,
|
||||
2000101220001022,
|
||||
2011201220222030,
|
||||
0330000//42
|
||||
|
||||
#GOGOSTART
|
||||
4,
|
||||
0022101211201040,
|
||||
0022201110201022,
|
||||
1000101222102010,
|
||||
0010102220201011,
|
||||
1011102210111022,
|
||||
1011221000221000,
|
||||
1222201222201222,
|
||||
2012222030300040,
|
||||
0022101211201040,
|
||||
0022201110102000,
|
||||
30430303,
|
||||
02221010,
|
||||
2000111020111020,
|
||||
0011100011112210,
|
||||
2000111020111020,
|
||||
0223,//58
|
||||
|
||||
#GOGOEND
|
||||
111111200300,
|
||||
111112200300,
|
||||
111122200300,
|
||||
111222200000,
|
||||
112222200300,
|
||||
122222200300,
|
||||
4000102220201020,
|
||||
0020122012201000,
|
||||
3022202020200030,
|
||||
000200000222200200200300,
|
||||
00022223,
|
||||
02020220,
|
||||
3000002220202030,
|
||||
000200200200200222200300,
|
||||
0020202220202030,
|
||||
000000000000100100100000200200100000600008000000,
|
||||
1010101110101011,
|
||||
2010101120101012,
|
||||
2012202220222030,
|
||||
0030302222222210,
|
||||
00//79-1
|
||||
|
||||
#GOGOSTART
|
||||
40000//79-2
|
||||
|
||||
#GOGOEND
|
||||
1,
|
||||
0000//80
|
||||
|
||||
#GOGOSTART
|
||||
400022221000,
|
||||
10110102,
|
||||
0010002000221011,
|
||||
1011102210121022,
|
||||
1011221000221000,
|
||||
1222221222221222,
|
||||
2212222030300040,
|
||||
0022101211201040,
|
||||
0022201110102000,
|
||||
30430303,
|
||||
02221010,
|
||||
2000111020111020,
|
||||
0011100011112210,
|
||||
2000221020112030,
|
||||
0333,//94
|
||||
|
||||
#GOGOEND
|
||||
7,
|
||||
0800,
|
||||
1020102220201020,
|
||||
0020002110101020,
|
||||
0300,
|
||||
|
||||
|
||||
#END
|
||||
|
||||
|
||||
COURSE:Hard
|
||||
LEVEL:7
|
||||
BALLOON:4,4,5,13,4,4,13
|
||||
SCOREINIT:560
|
||||
SCOREDIFF:140
|
||||
|
||||
#START
|
||||
,
|
||||
00002221,
|
||||
,
|
||||
00022210,
|
||||
10001100,
|
||||
10102205,
|
||||
000000000000000000000000000000000000000000000008,
|
||||
,
|
||||
11101002,
|
||||
02022000,
|
||||
11101002,
|
||||
02040000,
|
||||
11101202,
|
||||
02020220,
|
||||
10210210,
|
||||
21021100,
|
||||
20000001,
|
||||
,
|
||||
20000002,
|
||||
00020003,
|
||||
0121,
|
||||
2121,
|
||||
22022023,
|
||||
0211,
|
||||
11211021,
|
||||
01210111,
|
||||
01211021,
|
||||
01210222,
|
||||
00302221,
|
||||
00302220,
|
||||
12,
|
||||
1110,
|
||||
11000011,
|
||||
00030220,
|
||||
11000011,
|
||||
00040110,
|
||||
22000022,
|
||||
0010001000222000,
|
||||
1000101110001011,
|
||||
1000101110001000,
|
||||
5000000000000000000000000000080000000000003000000,
|
||||
0330000//42
|
||||
|
||||
#GOGOSTART
|
||||
4,
|
||||
00211104,
|
||||
00211020,
|
||||
10110212,
|
||||
0010001110001000,
|
||||
11121112,
|
||||
11110010,
|
||||
10210270,
|
||||
00811104,
|
||||
00211104,
|
||||
00211020,
|
||||
30230307,
|
||||
00081010,
|
||||
10110101,
|
||||
0011100000001010,
|
||||
10110102,
|
||||
0222,//58
|
||||
|
||||
#GOGOEND
|
||||
100111100300,
|
||||
100111100300,
|
||||
100111100300,
|
||||
78,
|
||||
100111100300,
|
||||
100111100300,
|
||||
40011011,
|
||||
0111,
|
||||
9,
|
||||
09,
|
||||
8,
|
||||
,
|
||||
30000003,
|
||||
00000003,
|
||||
00000003,
|
||||
0114,
|
||||
1000101110001011,
|
||||
1000101110001000,
|
||||
500000000000000000000000000008000000000000300000,
|
||||
03300002,
|
||||
00//79-1
|
||||
|
||||
#GOGOSTART
|
||||
30000//79-2
|
||||
|
||||
#GOGOEND
|
||||
2,
|
||||
0//80
|
||||
|
||||
#GOGOSTART
|
||||
322,
|
||||
10110202,
|
||||
0010001110001000,
|
||||
11121112,
|
||||
11110010,
|
||||
10210270,
|
||||
00811104,
|
||||
00211104,
|
||||
00211020,
|
||||
30230307,
|
||||
00081010,
|
||||
10110101,
|
||||
0011100000001010,
|
||||
20220201,
|
||||
0111,//94
|
||||
|
||||
#GOGOEND
|
||||
7,
|
||||
0800,
|
||||
11101012,
|
||||
0020001110101020,
|
||||
0300,
|
||||
,
|
||||
#END
|
||||
|
||||
COURSE:Normal
|
||||
LEVEL:6
|
||||
BALLOON:6,4,3,3,7,4,3,7
|
||||
|
||||
#START
|
||||
,
|
||||
,
|
||||
,
|
||||
,
|
||||
12,
|
||||
10001105,
|
||||
000000000000000000000000000000000000000000000008,
|
||||
,
|
||||
10201001,
|
||||
,
|
||||
10201001,
|
||||
,
|
||||
10201001,
|
||||
,
|
||||
30030030,
|
||||
03003000,
|
||||
20000001,
|
||||
,
|
||||
20000001,
|
||||
00000007,
|
||||
0008,
|
||||
,
|
||||
11011011,
|
||||
,
|
||||
10201001,
|
||||
,
|
||||
10201001,
|
||||
,
|
||||
0500,
|
||||
000000000000000000000008000000000000000000000000,
|
||||
12,
|
||||
1110,
|
||||
11000011,
|
||||
,
|
||||
11000011,
|
||||
,
|
||||
22000022,
|
||||
,
|
||||
11,
|
||||
1011,
|
||||
500000000000000000000000000008000000000000300000,
|
||||
0030000//42
|
||||
|
||||
#GOGOSTART
|
||||
2,
|
||||
00101002,
|
||||
0110,
|
||||
10010105,
|
||||
000000000000000000000008000000000000000000000000,
|
||||
1111,
|
||||
1100,
|
||||
30030070,
|
||||
00800002,
|
||||
00101002,
|
||||
0110,
|
||||
30030307,
|
||||
00081010,
|
||||
10020202,
|
||||
0302,
|
||||
10020202,
|
||||
02,//58
|
||||
|
||||
#GOGOEND
|
||||
1111,
|
||||
1111,
|
||||
1111,
|
||||
78,
|
||||
1111,
|
||||
1111,
|
||||
30002002,
|
||||
01,
|
||||
9,
|
||||
09,
|
||||
8,
|
||||
,
|
||||
30000003,
|
||||
00000003,
|
||||
00000003,
|
||||
02,
|
||||
11,
|
||||
1011,
|
||||
500000000000000000000000000008000000000000300000,
|
||||
00300002,
|
||||
00//79-1
|
||||
|
||||
#GOGOSTART
|
||||
30000//79-2
|
||||
|
||||
#GOGOEND
|
||||
2,
|
||||
0//80
|
||||
|
||||
#GOGOSTART
|
||||
300,
|
||||
10010105,
|
||||
000000000000000000000008000000000000000000000000,
|
||||
1111,
|
||||
1100,
|
||||
30030070,
|
||||
00800002,
|
||||
00101002,
|
||||
0110,
|
||||
30030307,
|
||||
00081010,
|
||||
10020202,
|
||||
0301,
|
||||
10020202,
|
||||
0111,//94
|
||||
|
||||
#GOGOEND
|
||||
7,
|
||||
0800,
|
||||
10201001,
|
||||
02010201,
|
||||
0300,
|
||||
,
|
||||
#END
|
||||
|
||||
COURSE:Easy
|
||||
LEVEL:4
|
||||
|
||||
#START
|
||||
,
|
||||
,
|
||||
,
|
||||
,
|
||||
11,
|
||||
10001005,
|
||||
000000000000000000000000000000000000000000000008,
|
||||
,
|
||||
20001001,
|
||||
,
|
||||
20001001,
|
||||
,
|
||||
20001001,
|
||||
,
|
||||
30030030,
|
||||
03003000,
|
||||
1,
|
||||
,
|
||||
1,
|
||||
00000007,
|
||||
,
|
||||
8,
|
||||
,
|
||||
,
|
||||
20001001,
|
||||
,
|
||||
20001001,
|
||||
,
|
||||
0500,
|
||||
000000000000000000000008000000000000000000000000,
|
||||
11,
|
||||
1,
|
||||
1003,
|
||||
,
|
||||
1003,
|
||||
,
|
||||
1003,
|
||||
,
|
||||
11,
|
||||
11,
|
||||
500000000000000000000000000000000000000008000000,
|
||||
0000000//42
|
||||
|
||||
#GOGOSTART
|
||||
2,
|
||||
00001001,
|
||||
01,
|
||||
5,
|
||||
000000000000000000000008000000000000000000000000,
|
||||
11,
|
||||
1100,
|
||||
30030030,
|
||||
00000002,
|
||||
00001001,
|
||||
01,
|
||||
30030303,
|
||||
,
|
||||
10010101,
|
||||
,
|
||||
10010101,
|
||||
,//58
|
||||
|
||||
#GOGOEND
|
||||
11,
|
||||
11,
|
||||
11,
|
||||
78,
|
||||
11,
|
||||
11,
|
||||
30002002,
|
||||
,
|
||||
9,
|
||||
09,
|
||||
8,
|
||||
,
|
||||
30000003,
|
||||
00000003,
|
||||
00000003,
|
||||
,
|
||||
11,
|
||||
11,
|
||||
500000000000000000000000000000000000000008000000,
|
||||
,
|
||||
00//79-1
|
||||
|
||||
#GOGOSTART
|
||||
30000//79-2
|
||||
|
||||
#GOGOEND
|
||||
0,
|
||||
0//80
|
||||
|
||||
#GOGOSTART
|
||||
300,
|
||||
5,
|
||||
000000000000000000000008000000000000000000000000,
|
||||
11,
|
||||
1100,
|
||||
30030030,
|
||||
00000002,
|
||||
00001001,
|
||||
01,
|
||||
30030303,
|
||||
,
|
||||
10010101,
|
||||
,
|
||||
10010101,
|
||||
,//94
|
||||
|
||||
#GOGOEND
|
||||
7,
|
||||
0800,
|
||||
20001001,
|
||||
,
|
||||
0300,
|
||||
,
|
||||
#END
|
||||
Reference in New Issue
Block a user