tja
This commit is contained in:
539
tja/799.tja
Normal file
539
tja/799.tja
Normal file
@@ -0,0 +1,539 @@
|
||||
//TJADB Project
|
||||
TITLE:Ko-ki-ku-kuru-kuru-kure-ko!
|
||||
TITLEJA:こ・き・く・くる・くる・くれ・こ!
|
||||
SUBTITLE:--Nana Moroboshi feat. Haruka Katou
|
||||
SUBTITLEJA:諸星なな・加藤はるか
|
||||
BPM:200
|
||||
WAVE:Ko-ki-ku-kuru-kuru-kure-ko!.ogg
|
||||
OFFSET:-1.360
|
||||
DEMOSTART:54.916
|
||||
|
||||
COURSE:Oni
|
||||
LEVEL:8
|
||||
BALLOON:8,8,5,5,7,5,5,5,2,13
|
||||
SCOREINIT:550
|
||||
SCOREDIFF:110
|
||||
|
||||
|
||||
#START
|
||||
|
||||
|
||||
#GOGOSTART
|
||||
100102002202,
|
||||
101202101200,
|
||||
102101001202,
|
||||
102201002002,
|
||||
100001000100,
|
||||
000202103030,
|
||||
000200202001,
|
||||
001101201200,
|
||||
4444,
|
||||
3330,
|
||||
|
||||
#GOGOEND
|
||||
102102002002,
|
||||
102102001002,
|
||||
102101201202,
|
||||
101003001101,
|
||||
100100200201,
|
||||
001202002101,
|
||||
001201100200,
|
||||
102101003001,
|
||||
12,
|
||||
100102001000,
|
||||
122122,
|
||||
100101000000,
|
||||
100200101200,
|
||||
500000000000000000000008000000001000200000001000,
|
||||
001101200100,
|
||||
201201002001,
|
||||
100200102002,
|
||||
100102002000,
|
||||
211212,
|
||||
100201002002,
|
||||
101004002202,
|
||||
100100200101,
|
||||
001101202202,
|
||||
200100200101,
|
||||
700000008001,
|
||||
100202001102,
|
||||
100103001202,
|
||||
100100102102,
|
||||
102102100105,
|
||||
000000000000000000000008000000001000100000001000,
|
||||
100303000002,
|
||||
202202202202,
|
||||
200000200020000022200000,
|
||||
3,
|
||||
111111200000,
|
||||
|
||||
#GOGOSTART
|
||||
102102002102,
|
||||
102101201202,
|
||||
101101001101,
|
||||
101101003000,
|
||||
000202202202,
|
||||
700000802002,
|
||||
100201001002,
|
||||
101207000801,
|
||||
102102002102,
|
||||
1122,
|
||||
102101001202,
|
||||
102201002002,
|
||||
100001000100,
|
||||
000202103030,
|
||||
000200202001,
|
||||
001101201200,
|
||||
4444,
|
||||
300300300002,
|
||||
|
||||
#GOGOEND
|
||||
202102001002,
|
||||
200102002101,
|
||||
200101202102,
|
||||
200000001000200000002000000000005000000000080000,
|
||||
000202202202,
|
||||
200020200020000022200010,
|
||||
70087008,
|
||||
700000000000000000800000200000002000200000006000,
|
||||
000000000000000000000008000000002000200000002000,
|
||||
200404000001,
|
||||
101101200101,
|
||||
100101002100,
|
||||
3,
|
||||
222222100000,
|
||||
|
||||
#GOGOSTART
|
||||
100102002202,
|
||||
101202101200,
|
||||
101101001101,
|
||||
101101003000,
|
||||
000202101202,
|
||||
101201001002,
|
||||
102101001002,
|
||||
101207000801,
|
||||
102102002102,
|
||||
1122,
|
||||
102101002101,
|
||||
201102001002,
|
||||
500000000000000000000000000000000000000000000008000000000000000000000000000000006000000000000000000000000000800000000000000000000000000000000007000000000000000000000000000000000000000000000000,
|
||||
800101203040,
|
||||
000100201002,
|
||||
002102101100,
|
||||
4444,
|
||||
300000300000300070000800,
|
||||
4444,
|
||||
7008,
|
||||
|
||||
#GOGOEND
|
||||
102102002002,
|
||||
102102001002,
|
||||
102101201202,
|
||||
101003001101,
|
||||
100100200201,
|
||||
001202002101,
|
||||
001201100200,
|
||||
#BPMCHANGE 150
|
||||
#SCROLL 1.33
|
||||
30000000000060000000000000000008
|
||||
|
||||
#GOGOSTART
|
||||
0000000000000000,
|
||||
|
||||
#GOGOEND
|
||||
|
||||
|
||||
#END
|
||||
|
||||
|
||||
COURSE:Hard
|
||||
LEVEL:6
|
||||
BALLOON:11,4,11,3,8
|
||||
SCOREINIT:540
|
||||
SCOREDIFF:160
|
||||
|
||||
|
||||
#START
|
||||
|
||||
|
||||
#GOGOSTART
|
||||
100202000000,
|
||||
1120,
|
||||
100202000000,
|
||||
3,
|
||||
7,
|
||||
800100303030,
|
||||
000100202001,
|
||||
0110,
|
||||
4444,
|
||||
3330,//10
|
||||
|
||||
#GOGOEND
|
||||
200202000000,
|
||||
100101000000,
|
||||
1111,
|
||||
202001000000,
|
||||
100000000002,
|
||||
000000000002,
|
||||
01,
|
||||
100202001000,
|
||||
01,
|
||||
100202001000,
|
||||
111111,
|
||||
3,
|
||||
1111,
|
||||
100202001000,
|
||||
0111,
|
||||
100202001000,
|
||||
01,
|
||||
100202001000,
|
||||
222222,
|
||||
3,
|
||||
,
|
||||
1122,
|
||||
0220,
|
||||
1122,
|
||||
78,
|
||||
100101000000,
|
||||
300303000000,
|
||||
1111,
|
||||
200200200205,
|
||||
000000000000000000000008000000001000100000001000,
|
||||
100303000000,
|
||||
2222,
|
||||
200202000000,
|
||||
3,
|
||||
3340,//45
|
||||
|
||||
#GOGOSTART
|
||||
100202001100,
|
||||
1122,
|
||||
100101001100,
|
||||
3,
|
||||
0222,
|
||||
200202000000,
|
||||
100202001000,
|
||||
3,
|
||||
100202001100,
|
||||
1122,
|
||||
100202001000,
|
||||
3,
|
||||
7,
|
||||
800100303030,
|
||||
000100202001,
|
||||
0110,
|
||||
4444,
|
||||
3330,//63
|
||||
|
||||
#GOGOEND
|
||||
100202001000,
|
||||
100202000000,
|
||||
1212,
|
||||
100202001000,
|
||||
0222,
|
||||
200202000000,
|
||||
1122,
|
||||
100100200205,
|
||||
000000000000000000000008000000002000200000002000,
|
||||
200404000000,
|
||||
1111,
|
||||
100101000000,
|
||||
3,
|
||||
3340,//77
|
||||
|
||||
#GOGOSTART
|
||||
200202002200,
|
||||
2222,
|
||||
100101001100,
|
||||
3,
|
||||
0222,
|
||||
200202000000,
|
||||
100202001000,
|
||||
3,
|
||||
100202001100,
|
||||
1122,
|
||||
100202001000,
|
||||
3,
|
||||
500000000008000000600000000008000000700000000000,
|
||||
800100404040,
|
||||
000200101002,
|
||||
0220,
|
||||
4444,
|
||||
3330,
|
||||
4444,
|
||||
7008,//97
|
||||
|
||||
#GOGOEND
|
||||
200202000000,
|
||||
100101000000,
|
||||
1111,
|
||||
202001000000,
|
||||
100000000002,
|
||||
000000000002,
|
||||
01,
|
||||
30000000000060000000000000000008//105-1
|
||||
|
||||
#GOGOSTART
|
||||
0000000000000000,//105-2
|
||||
|
||||
#GOGOEND
|
||||
0,
|
||||
#END
|
||||
|
||||
COURSE:Normal
|
||||
LEVEL:4
|
||||
BALLOON:6,14,3,3,6,4,3,6,5,14
|
||||
|
||||
#START
|
||||
#GOGOSTART
|
||||
1100,
|
||||
1110,
|
||||
1100,
|
||||
3,
|
||||
7,
|
||||
8330,
|
||||
000200200005,
|
||||
000000000000000000000008000000000000000000000000,
|
||||
44,
|
||||
3330,//10
|
||||
|
||||
#GOGOEND
|
||||
2200,
|
||||
1100,
|
||||
2220,
|
||||
2,
|
||||
7,
|
||||
,
|
||||
8,
|
||||
1,
|
||||
02,
|
||||
2,
|
||||
33,
|
||||
3,
|
||||
11,
|
||||
1100,
|
||||
0220,
|
||||
2,
|
||||
01,
|
||||
1100,
|
||||
33,
|
||||
3,
|
||||
,
|
||||
1022,
|
||||
0220,
|
||||
11,
|
||||
78,
|
||||
1100,
|
||||
3300,
|
||||
1111,
|
||||
100100100005,
|
||||
000000000000000000000008000000000000000000000000,
|
||||
3300,
|
||||
22,
|
||||
2200,
|
||||
3,
|
||||
3330,//45
|
||||
|
||||
#GOGOSTART
|
||||
1202,
|
||||
1120,
|
||||
1101,
|
||||
3,
|
||||
0222,
|
||||
78,
|
||||
1100,
|
||||
3,
|
||||
1202,
|
||||
1120,
|
||||
1202,
|
||||
3,
|
||||
7,
|
||||
8330,
|
||||
000200200005,
|
||||
000000000000000000000008000000000000000000000000,
|
||||
44,
|
||||
3330,//63
|
||||
|
||||
#GOGOEND
|
||||
1100,
|
||||
2200,
|
||||
1122,
|
||||
78,
|
||||
0222,
|
||||
500000000000000000000008000000000000000000000000,
|
||||
1111,
|
||||
200200200005,
|
||||
000000000000000000000008000000000000000000000000,
|
||||
4,
|
||||
11,
|
||||
1100,
|
||||
3,
|
||||
3330,//77
|
||||
|
||||
#GOGOSTART
|
||||
2202,
|
||||
2220,
|
||||
1101,
|
||||
3,
|
||||
0222,
|
||||
78,
|
||||
1100,
|
||||
3,
|
||||
1202,
|
||||
1120,
|
||||
1202,
|
||||
3,
|
||||
7,
|
||||
8440,
|
||||
000100100005,
|
||||
000000000000000000000008000000000000000000000000,
|
||||
44,
|
||||
3330,
|
||||
44,
|
||||
7008,//97
|
||||
|
||||
#GOGOEND
|
||||
2200,
|
||||
1100,
|
||||
2220,
|
||||
2,
|
||||
7,
|
||||
,
|
||||
8,
|
||||
30000000000060000000000000000008//105-1
|
||||
|
||||
#GOGOSTART
|
||||
0000000000000000,//105-2
|
||||
|
||||
#GOGOEND
|
||||
0,
|
||||
#END
|
||||
|
||||
COURSE:Easy
|
||||
LEVEL:3
|
||||
BALLOON:6,11,2,7,6,7,6,5,11
|
||||
|
||||
#START
|
||||
#GOGOSTART
|
||||
1100,
|
||||
1,
|
||||
1100,
|
||||
3,
|
||||
7,
|
||||
83,
|
||||
000100100005,
|
||||
000000000000000000000008000000000000000000000000,
|
||||
33,
|
||||
3330,//10
|
||||
|
||||
#GOGOEND
|
||||
2,
|
||||
2,
|
||||
22,
|
||||
2,
|
||||
7,
|
||||
,
|
||||
8,
|
||||
1,
|
||||
02,
|
||||
2,
|
||||
33,
|
||||
3,
|
||||
11,
|
||||
1,
|
||||
02,
|
||||
2,
|
||||
01,
|
||||
1,
|
||||
33,
|
||||
3,
|
||||
,
|
||||
22,
|
||||
01,
|
||||
11,
|
||||
78,
|
||||
1,
|
||||
3,
|
||||
11,
|
||||
100000100005,
|
||||
000000000000000000000000000000000000000000000008,
|
||||
,
|
||||
2,
|
||||
2,
|
||||
3,
|
||||
3330,//45
|
||||
|
||||
#GOGOSTART
|
||||
1100,
|
||||
1,
|
||||
1100,
|
||||
3,
|
||||
0700,
|
||||
08,
|
||||
1,
|
||||
3,
|
||||
2200,
|
||||
2,
|
||||
2200,
|
||||
4,
|
||||
7,
|
||||
83,
|
||||
000100100005,
|
||||
000000000000000000000008000000000000000000000000,
|
||||
33,
|
||||
3330,//63
|
||||
|
||||
#GOGOEND
|
||||
1,
|
||||
2,
|
||||
11,
|
||||
2,
|
||||
1,
|
||||
2,
|
||||
11,
|
||||
200000200005,
|
||||
000000000000000000000000000000000000000000000008,
|
||||
,
|
||||
1,
|
||||
1,
|
||||
3,
|
||||
3330,//77
|
||||
|
||||
#GOGOSTART
|
||||
1100,
|
||||
1,
|
||||
1100,
|
||||
3,
|
||||
0700,
|
||||
00000800,
|
||||
1,
|
||||
3,
|
||||
2200,
|
||||
2,
|
||||
2200,
|
||||
4,
|
||||
7,
|
||||
83,
|
||||
000100100005,
|
||||
000000000000000000000008000000000000000000000000,
|
||||
33,
|
||||
3330,
|
||||
33,
|
||||
7008,//97
|
||||
|
||||
#GOGOEND
|
||||
2,
|
||||
2,
|
||||
22,
|
||||
2,
|
||||
7,
|
||||
,
|
||||
8,
|
||||
30000000000060000000000000000008//105-1
|
||||
|
||||
#GOGOSTART
|
||||
0000000000000000,//105-2
|
||||
|
||||
#GOGOEND
|
||||
0,
|
||||
#END
|
||||
Reference in New Issue
Block a user