tja
This commit is contained in:
673
tja/804.tja
Normal file
673
tja/804.tja
Normal file
@@ -0,0 +1,673 @@
|
||||
//TJADB Project
|
||||
TITLE:Altale
|
||||
TITLEJA:Altale
|
||||
SUBTITLE:--Sakuzyo/G2R2014
|
||||
SUBTITLEJA:削除
|
||||
BPM:90
|
||||
WAVE:Altale.ogg
|
||||
OFFSET:-2.497
|
||||
DEMOSTART:93.837
|
||||
|
||||
COURSE:Edit
|
||||
LEVEL:10
|
||||
BALLOON:2,2,2
|
||||
SCOREINIT:400
|
||||
SCOREDIFF:90
|
||||
|
||||
|
||||
#START
|
||||
|
||||
|
||||
#BARLINEOFF
|
||||
#MEASURE 1/8
|
||||
202,
|
||||
#BARLINEON
|
||||
#MEASURE 3/4
|
||||
200000201200000102,
|
||||
200200202100000200,
|
||||
102122,
|
||||
200000000200000202,
|
||||
200000201200000102,
|
||||
200200100200201202,
|
||||
100000202100100200,
|
||||
|
||||
#GOGOSTART
|
||||
#MEASURE 6/4
|
||||
#BPMCHANGE 180
|
||||
101010200020101010222020101010222020,
|
||||
101010202020100010222020101010222020,
|
||||
101010200020101010222020101010222020,
|
||||
101010202020100010222020101010222020,
|
||||
|
||||
#GOGOEND
|
||||
101020202000112221122000,
|
||||
102020101000122112211000,
|
||||
102020201010122211222000,
|
||||
202010102000221122211222,
|
||||
101022102000101022112010,
|
||||
300000100000200200100000200000000000100000100000202020100100200000100000,
|
||||
300000100000200200100100200000200000300000100000202020100100200000100000,
|
||||
300000100000200200100100200000200000500000000000000000000000000008000000,
|
||||
#MEASURE 3/4
|
||||
#BPMCHANGE 90
|
||||
112221112212,
|
||||
112221112212,
|
||||
112221112212,
|
||||
100100200200200100101010200200100200,
|
||||
112221112212,
|
||||
100100200200200100101010200200100200,
|
||||
100100200200100200100100200100102020,
|
||||
100100200200100200101010200200100000,
|
||||
|
||||
#GOGOSTART
|
||||
#MEASURE 6/4
|
||||
#BPMCHANGE 180
|
||||
111211121122112212221222,
|
||||
222122212211221121112111,
|
||||
111211121122112212221222,
|
||||
222122212211221121112111,
|
||||
708011221122708011221122,
|
||||
708011221122221122111122,
|
||||
222211112211212121212000,
|
||||
222211112211212121212000,
|
||||
111122221122221122112211,
|
||||
202020202020101010101010500000000000000000000008000000000000000000000000,
|
||||
|
||||
#GOGOEND
|
||||
#MEASURE 3/4
|
||||
#BPMCHANGE 90
|
||||
3,
|
||||
,
|
||||
,
|
||||
220000000000000000400000000000000000,
|
||||
222200,
|
||||
222200,
|
||||
202200,
|
||||
202200,
|
||||
#MEASURE 9/8
|
||||
200000000
|
||||
#BPMCHANGE 180
|
||||
101010202020111222,
|
||||
|
||||
#GOGOSTART
|
||||
#MEASURE 6/4
|
||||
101201102111202102,
|
||||
101201102111202102,
|
||||
101010202010100020111010202020100020,
|
||||
102000200020100020102220102020102220,
|
||||
101201102111202102,
|
||||
3333,
|
||||
300010202010100020111010202220102020,
|
||||
301201102111202102,
|
||||
100010200010100020101010202220102020,
|
||||
101010202010100020111010202020100020,
|
||||
102000200020100020102220102020102220,
|
||||
101201102111202102,
|
||||
300000000300200200302020202120202020,
|
||||
300010202010100020111010202020100020,
|
||||
120202100200000000,
|
||||
|
||||
#GOGOEND
|
||||
#MEASURE 3/4
|
||||
#BPMCHANGE 82.4
|
||||
#SCROLL 1.0072815534
|
||||
200000201200000102,
|
||||
#BPMCHANGE 81.9
|
||||
#SCROLL 1.01343101343
|
||||
200200202100000200,
|
||||
#BPMCHANGE 85.5
|
||||
#SCROLL 0.97076023391
|
||||
10
|
||||
#BPMCHANGE 83.5
|
||||
#SCROLL 0.99401197604
|
||||
2121,
|
||||
#BPMCHANGE 83
|
||||
#SCROLL 1
|
||||
100000000100000202,
|
||||
200000201200000000,
|
||||
100100100200200202,
|
||||
200000201200000000,
|
||||
000222,
|
||||
#BPMCHANGE 80.6
|
||||
#SCROLL 1.02977667494
|
||||
4,
|
||||
#BPMCHANGE 85.3
|
||||
#SCROLL 0.97303634232
|
||||
5,
|
||||
000000000000000000000000000000000008,
|
||||
|
||||
|
||||
#END
|
||||
|
||||
|
||||
COURSE:Oni
|
||||
LEVEL:8
|
||||
BALLOON:8,20,20
|
||||
SCOREINIT:560
|
||||
SCOREDIFF:138
|
||||
|
||||
|
||||
#START
|
||||
|
||||
|
||||
#BARLINEOFF
|
||||
#MEASURE 1/8
|
||||
202,
|
||||
#BARLINEON
|
||||
#MEASURE 3/4
|
||||
200000202200000202,
|
||||
200200202200000200,
|
||||
202222,
|
||||
200000000200000202,
|
||||
200000202200000202,
|
||||
100200200100202202,
|
||||
100000202100200200,
|
||||
|
||||
#GOGOSTART
|
||||
#MEASURE 6/4
|
||||
#BPMCHANGE 180
|
||||
111202101202111200,
|
||||
111202101222101200,
|
||||
111202101202111200,
|
||||
111202101222101200,
|
||||
|
||||
#GOGOEND
|
||||
300011101000100011102000,
|
||||
200022202000200022201000,
|
||||
100011102020100022201000,
|
||||
200022201000200011112000,
|
||||
300011102000200022201000,
|
||||
300011102000200022201010,
|
||||
300011102020300022201000,
|
||||
300011102000700000008000,
|
||||
#MEASURE 3/4
|
||||
#BPMCHANGE 90
|
||||
301120102020,
|
||||
101120102220,
|
||||
101120102020,
|
||||
301120302220,
|
||||
301122102020,
|
||||
101122102220,
|
||||
301122102212,
|
||||
101122102020,
|
||||
|
||||
#GOGOSTART
|
||||
#MEASURE 6/4
|
||||
#BPMCHANGE 180
|
||||
101020102020101020102220,
|
||||
100000100000500000000000000000000008000000000000200000100000200000000000,
|
||||
101020102020101020102220,
|
||||
500000000000000008000000200000100000500000000000000008000000200000200000,
|
||||
101020102210100020102000,
|
||||
101020102210100020102000,
|
||||
101122102010100020102220,
|
||||
101122102010100020102220,
|
||||
101122102010101122102010,
|
||||
700008,
|
||||
|
||||
#GOGOEND
|
||||
#MEASURE 3/4
|
||||
#BPMCHANGE 90
|
||||
400000202200000202,
|
||||
200200202200000200,
|
||||
202222,
|
||||
200222,
|
||||
11,
|
||||
112112,
|
||||
22,
|
||||
22,
|
||||
#MEASURE 9/8
|
||||
200000000000000000
|
||||
#BPMCHANGE 180
|
||||
500000000000000000000000000800000000,
|
||||
|
||||
#GOGOSTART
|
||||
#MEASURE 6/4
|
||||
301200102101200102,
|
||||
101202101101221100,
|
||||
111222100222111200,
|
||||
500000000000000000000000000008000000500000000000000000000000000008000000,
|
||||
101200102101200102,
|
||||
3333,
|
||||
301201102101222122,
|
||||
101200102101200102,
|
||||
101202101101221100,
|
||||
111222100222111200,
|
||||
500000000000000000000000000008000000500000000000000000000000000008000000,
|
||||
101200102101200102,
|
||||
3333,
|
||||
301201102101221100,
|
||||
700008,
|
||||
|
||||
#GOGOEND
|
||||
#MEASURE 3/4
|
||||
#BPMCHANGE 82.4
|
||||
#SCROLL 1.0072815534
|
||||
200000202200000202,
|
||||
#BPMCHANGE 81.9
|
||||
#SCROLL 1.01343101343
|
||||
100200202100000200,
|
||||
#BPMCHANGE 85.5
|
||||
#SCROLL 0.97076023391
|
||||
10
|
||||
#BPMCHANGE 83.5
|
||||
#SCROLL 0.99401197604
|
||||
2122,
|
||||
#BPMCHANGE 83
|
||||
#SCROLL 1
|
||||
100000000100000202,
|
||||
200000202200000000,
|
||||
100100200100100202,
|
||||
200000202200000000,
|
||||
000222,
|
||||
#BPMCHANGE 80.6
|
||||
#SCROLL 1.02977667494
|
||||
2,
|
||||
#BPMCHANGE 85.3
|
||||
#SCROLL 0.97303634232
|
||||
5,
|
||||
000000000000000000000000000000000008,
|
||||
|
||||
|
||||
#END
|
||||
|
||||
|
||||
COURSE:Hard
|
||||
LEVEL:6
|
||||
BALLOON:5,14
|
||||
SCOREINIT:590
|
||||
SCOREDIFF:160
|
||||
|
||||
|
||||
#START
|
||||
|
||||
|
||||
#BARLINEOFF
|
||||
#MEASURE 1/8
|
||||
2,
|
||||
#BARLINEON
|
||||
#MEASURE 3/4
|
||||
202202,
|
||||
222202,
|
||||
202222,
|
||||
200202,
|
||||
202202,
|
||||
122102,
|
||||
102122,
|
||||
|
||||
#GOGOSTART
|
||||
#MEASURE 6/4
|
||||
#BPMCHANGE 180
|
||||
343434,
|
||||
343434,
|
||||
343434,
|
||||
343434,
|
||||
|
||||
#GOGOEND
|
||||
302010101120,
|
||||
102010102210,
|
||||
101122102010,
|
||||
102010101110,
|
||||
302010101120,
|
||||
302010102211,
|
||||
301122302010,
|
||||
321708,
|
||||
#MEASURE 3/4
|
||||
#BPMCHANGE 90
|
||||
322122,
|
||||
102020102220,
|
||||
122122,
|
||||
302020302220,
|
||||
322122,
|
||||
102020102220,
|
||||
322322,
|
||||
500000000000000000000008000000000000,
|
||||
|
||||
#GOGOSTART
|
||||
#MEASURE 6/4
|
||||
#BPMCHANGE 180
|
||||
301120102210,
|
||||
500000000000000000000000000000000008000000000000200000000000200000000000,
|
||||
101120102210,
|
||||
500000000000000000000000000000000000000000000000000008000000200000200000,
|
||||
301022301120,
|
||||
322322,
|
||||
301122101020,
|
||||
301122101122,
|
||||
600000000000000000000000000000000000000000000000000000000000000000000008,
|
||||
,
|
||||
|
||||
#GOGOEND
|
||||
#MEASURE 3/4
|
||||
#BPMCHANGE 90
|
||||
402202,
|
||||
222202,
|
||||
202222,
|
||||
22,
|
||||
11,
|
||||
111222,
|
||||
22,
|
||||
22,
|
||||
#MEASURE 9/8
|
||||
200000000000000000
|
||||
#BPMCHANGE 180
|
||||
500000000000000000000000000800000000,
|
||||
|
||||
#GOGOSTART
|
||||
#MEASURE 6/4
|
||||
300100201100100201,
|
||||
100200201100200200,
|
||||
100101100200202200,
|
||||
500000000000000000000000000008000000500000000000000000000000000008000000,
|
||||
100100201100100200,
|
||||
3333,
|
||||
300101100200202200,
|
||||
300100201100100201,
|
||||
100200201100200200,
|
||||
100101100200202200,
|
||||
500000000000000000000000000008000000500000000000000000000000000008000000,
|
||||
100100201100100200,
|
||||
3333,
|
||||
300101100200202200,
|
||||
700008,
|
||||
|
||||
#GOGOEND
|
||||
#MEASURE 3/4
|
||||
#BPMCHANGE 82.4
|
||||
#SCROLL 1.0072815534
|
||||
202202,
|
||||
#BPMCHANGE 81.9
|
||||
#SCROLL 1.01343101343
|
||||
122102,
|
||||
#BPMCHANGE 85.5
|
||||
#SCROLL 0.97076023391
|
||||
10
|
||||
#BPMCHANGE 83.5
|
||||
#SCROLL 0.99401197604
|
||||
2122,
|
||||
#BPMCHANGE 83
|
||||
#SCROLL 1
|
||||
100102,
|
||||
202200,
|
||||
111222,
|
||||
202200,
|
||||
000222,
|
||||
#BPMCHANGE 80.6
|
||||
#SCROLL 1.02977667494
|
||||
2,
|
||||
#BPMCHANGE 85.3
|
||||
#SCROLL 0.97303634232
|
||||
5,
|
||||
000000000000000000000000000000000008,
|
||||
|
||||
|
||||
#END
|
||||
|
||||
|
||||
COURSE:Normal
|
||||
LEVEL:4
|
||||
BALLOON:8,9,9,8
|
||||
SCOREINIT:920
|
||||
SCOREDIFF:285
|
||||
|
||||
|
||||
#START
|
||||
|
||||
|
||||
#BARLINEOFF
|
||||
#MEASURE 1/8
|
||||
,
|
||||
#BARLINEON
|
||||
#MEASURE 3/4
|
||||
11,
|
||||
11,
|
||||
11,
|
||||
11,
|
||||
22,
|
||||
22,
|
||||
22,
|
||||
|
||||
#GOGOSTART
|
||||
#MEASURE 6/4
|
||||
#BPMCHANGE 180
|
||||
600000000000000000000000000000000000000000000000000000000008000000000000,
|
||||
600000000000000000000000000000000000000000000000000000000008000000000000,
|
||||
600000000000000000000000000000000000000000000000000000000008000000000000,
|
||||
600000000000000000000000000000000000000000000000000008000000000000000000,//12
|
||||
|
||||
#GOGOEND
|
||||
311100,
|
||||
222200,
|
||||
111100,
|
||||
222200,
|
||||
311100,
|
||||
422200,
|
||||
311100,
|
||||
700008,
|
||||
#MEASURE 3/4
|
||||
#BPMCHANGE 90
|
||||
32,
|
||||
110220,
|
||||
12,
|
||||
500000000000000000000008000000000000,
|
||||
32,
|
||||
110220,
|
||||
32,
|
||||
500000000000000000000008000000000000,
|
||||
|
||||
#GOGOSTART
|
||||
#MEASURE 6/4
|
||||
#BPMCHANGE 180
|
||||
310112,
|
||||
500000000000000000000000000000000008000000000000000000000000000000000000,
|
||||
110112,
|
||||
500000000000000000000000000000000000000000000000000008000000000000000000,
|
||||
301301,
|
||||
301300,
|
||||
700008,
|
||||
700008,
|
||||
600000000000000000000000000000000000000000000000000000000000000000000008,
|
||||
,
|
||||
|
||||
#GOGOEND
|
||||
#MEASURE 3/4
|
||||
#BPMCHANGE 90
|
||||
42,
|
||||
22,
|
||||
22,
|
||||
2,
|
||||
11,
|
||||
11,
|
||||
22,
|
||||
22,
|
||||
#MEASURE 9/8
|
||||
2
|
||||
#BPMCHANGE 180
|
||||
00,
|
||||
|
||||
#GOGOSTART
|
||||
#MEASURE 6/4
|
||||
301101,
|
||||
122100,
|
||||
101122,
|
||||
500000000000000000000000000000000000000000000000000008000000000000000000,
|
||||
101100,
|
||||
3333,
|
||||
301122,
|
||||
301101,
|
||||
122100,
|
||||
101122,
|
||||
500000000000000000000000000000000000000000000000000008000000000000000000,
|
||||
101100,
|
||||
3333,
|
||||
301100,
|
||||
700008,
|
||||
|
||||
#GOGOEND
|
||||
#MEASURE 3/4
|
||||
#BPMCHANGE 82.4
|
||||
#SCROLL 1.0072815534
|
||||
202200,
|
||||
#BPMCHANGE 81.9
|
||||
#SCROLL 1.01343101343
|
||||
202200,
|
||||
#BPMCHANGE 85.5
|
||||
#SCROLL 0.97076023391
|
||||
20
|
||||
#BPMCHANGE 83.5
|
||||
#SCROLL 0.99401197604
|
||||
2200,
|
||||
#BPMCHANGE 83
|
||||
#SCROLL 1
|
||||
22,
|
||||
202200,
|
||||
,
|
||||
202200,
|
||||
,
|
||||
#BPMCHANGE 80.6
|
||||
#SCROLL 1.02977667494
|
||||
2,
|
||||
#BPMCHANGE 85.3
|
||||
#SCROLL 0.97303634232
|
||||
5,
|
||||
000000000000000000000000000000000008,
|
||||
|
||||
|
||||
#END
|
||||
|
||||
|
||||
COURSE:Easy
|
||||
LEVEL:4
|
||||
BALLOON:6,6,6,6,6
|
||||
SCOREINIT:790
|
||||
SCOREDIFF:303
|
||||
|
||||
|
||||
#START
|
||||
|
||||
|
||||
#BARLINEOFF
|
||||
#MEASURE 1/8
|
||||
,
|
||||
#BARLINEON
|
||||
#MEASURE 3/4
|
||||
1,
|
||||
1,
|
||||
1,
|
||||
1,
|
||||
11,
|
||||
11,
|
||||
11,
|
||||
|
||||
#GOGOSTART
|
||||
#MEASURE 6/4
|
||||
#BPMCHANGE 180
|
||||
#SCROLL 0.5
|
||||
600000000000000000000000000000000000000000000000000000000008000000000000,
|
||||
600000000000000000000000000000000000000000000000000000000008000000000000,
|
||||
600000000000000000000000000000000000000000000000000000000008000000000000,
|
||||
600000000000000000000000000000000000000000000008000000000000000000000000,//12
|
||||
|
||||
#GOGOEND
|
||||
31,
|
||||
11,
|
||||
22,
|
||||
22,
|
||||
32,
|
||||
32,
|
||||
33,
|
||||
700008,
|
||||
#MEASURE 3/4
|
||||
#BPMCHANGE 90
|
||||
#SCROLL 1
|
||||
31,
|
||||
100110,
|
||||
11,
|
||||
500000000000000000000008000000000000,
|
||||
31,
|
||||
100110,
|
||||
32,
|
||||
500000000000000000000008000000000000,
|
||||
|
||||
#GOGOSTART
|
||||
#MEASURE 6/4
|
||||
#BPMCHANGE 180
|
||||
#SCROLL 0.5
|
||||
32,
|
||||
500000000000000000000000000000000008000000000000000000000000000000000000,
|
||||
12,
|
||||
700008,
|
||||
33,
|
||||
33,
|
||||
700008,
|
||||
700008,
|
||||
600000000000000000000000000000000000000000000000000000000000000000000008,
|
||||
,
|
||||
|
||||
#GOGOEND
|
||||
#MEASURE 3/4
|
||||
#BPMCHANGE 90
|
||||
3,
|
||||
,
|
||||
,
|
||||
2,
|
||||
11,
|
||||
11,
|
||||
22,
|
||||
22,
|
||||
#MEASURE 9/8
|
||||
2
|
||||
#BPMCHANGE 180
|
||||
#SCROLL 0.5
|
||||
00,
|
||||
|
||||
#GOGOSTART
|
||||
#MEASURE 6/4
|
||||
301100,
|
||||
101100,
|
||||
101100,
|
||||
500000000000000000000000000000000000000000000008000000000000000000000000,
|
||||
101100,
|
||||
3333,
|
||||
301100,
|
||||
301100,
|
||||
101100,
|
||||
101100,
|
||||
500000000000000000000000000000000000000000000008000000000000000000000000,
|
||||
101100,
|
||||
3333,
|
||||
301100,
|
||||
700008,
|
||||
|
||||
#GOGOEND
|
||||
#MEASURE 3/4
|
||||
#BPMCHANGE 82.4
|
||||
#SCROLL 1.0072815534
|
||||
202200,
|
||||
#BPMCHANGE 81.9
|
||||
#SCROLL 1.01343101343
|
||||
202200,
|
||||
#BPMCHANGE 85.5
|
||||
#SCROLL 0.97076023391
|
||||
20
|
||||
#BPMCHANGE 83.5
|
||||
#SCROLL 0.99401197604
|
||||
2200,
|
||||
#BPMCHANGE 83
|
||||
#SCROLL 1
|
||||
22,
|
||||
202200,
|
||||
,
|
||||
202200,
|
||||
,
|
||||
#BPMCHANGE 80.6
|
||||
#SCROLL 1.02977667494
|
||||
2,
|
||||
#BPMCHANGE 85.3
|
||||
#SCROLL 0.97303634232
|
||||
5,
|
||||
000000000000000000000000000000000008,
|
||||
|
||||
|
||||
#END
|
||||
|
||||
Reference in New Issue
Block a user