This commit is contained in:
2026-03-04 23:59:27 +09:00
parent 6e0312f5b4
commit 4b4e2b8c98
1128 changed files with 668765 additions and 0 deletions

464
tja/805.tja Normal file
View File

@@ -0,0 +1,464 @@
//TJADB Project
TITLE:Pixel Galaxy
TITLEJA:Pixel Galaxy
SUBTITLE:--Snails House
SUBTITLEJA:Snails House
BPM:300
WAVE:Pixel Galaxy.ogg
OFFSET:-1.704
DEMOSTART:104.104
COURSE:Oni
LEVEL:9
SCOREINIT:420
SCOREDIFF:108
#START
#MEASURE 8/4
#SCROLL 0.5
10012000,
01012120,
10012000,
01012120,
10012000,
01012120,
10012000,
#BPMCHANGE 302
0010001020210210,
#GOGOSTART
#BPMCHANGE 300
1022201020002020,
00001000000000112000100020000000,
1022201020002020,
00001000000000112000100020000000,
1022201020002020,
00001000000000112000100020000000,
1022201020002020,
00001000000000112000201000102000,
1002022010202200,
2020220020202200,
1022022010202222,
1022102010202222,
12212212,
22222222,
1222221222221222,
1202021010004000,
#GOGOEND
3000001020201220,
00003000000000112000201000102000,
3000001020201220,
00003000000000112000201000102000,
3000001020201220,
00003000000000112000201000102000,
30030030,
0012102010210120,
3000001020201220,
00003000000000112000201000102000,
3020201020201220,
00003000000000112000201000102000,
32232232,
00003000000020112000201000102000,
32230230,
20002010002010112000000040000000,
1002022020202200,
2020220020020220,
1002022022102020,
2022102020202210,
1002022020202200,
2020220010020220,
1002102010221020,
1002202020202222,
#GOGOSTART
1001202210201222,
1020120210201220,
1020202210201022,
10002000200020201010200022101020,
0010202210201222,
1020120210201220,
1020202210201022,
10002000200020201020102210201000,
#GOGOEND
1021012010120210,
1021012010120210,
1021012210120210,
1021012210120210,
10002010001020201000201000221020,
10002010001020201000201000221020,
1222101222101222,
1012221210004000,
#GOGOSTART
3000001020201220,
00003000101020112000201000102000,
3020201020201220,
00003000101020112000201000102000,
3020201020201220,
00003000101020112000201000102000,
32230230,
00001020100020112000201000102000,
3000001020201220,
00003000101020112000201000102000,
3020201020201220,
00003000101020112000201000102000,
32232232,
00003000000020112000200020002000,
32230230,
20002010002010112000000040000000,
#GOGOEND
3002022020202200,
2020220020220220,
1022202010222020,
1020022010202020,
12202202,
02022222,
02220220,
0000002021020210,
#END
COURSE:Hard
LEVEL:6
SCOREINIT:450
SCOREDIFF:130
#START
#SCROLL 0.5
#MEASURE 8/4
10012000,
01012000,
10012000,
01012000,
10012000,
01012000,
10012000,
#BPMCHANGE 302
01012000,//8
#GOGOSTART
#BPMCHANGE 300
10012022,
01012120,
10012022,
01012120,
10012022,
01012120,
10012022,
01012120,
10012202,
22022120,
10012202,
22022120,
10010050,
000000000000000000000008000000000000000000000000,
30030060,
000000000008000000000000300000000000400000000000,//24
#GOGOEND
30012212,
03012000,
30012212,
03012000,
30012212,
03012000,
30030030,
03021000,
30012212,
03012000,
30012212,
03012000,
30030030,
03021000,
30030030,
02023040,
10022202,
22022120,
10022202,
22022120,
10022202,
22022120,
10121012,
1222,//48
#GOGOSTART
1000200010201110,
1000200010201110,
1000200010201110,
1000200010201011,
0000200010201110,
1000200010201110,
1000200010201110,
1000200010121010,//56
#GOGOEND
1001010010020200,
1001010010020200,
1001010010020200,
1001010010020200,
1001010010020200,
1001010010020200,
30030060,
000000000008000000000000300000000000400000000000,//64
#GOGOSTART
30012212,
03012120,
30012212,
03012210,
30012212,
03012120,
30030030,
02012210,
30012212,
03012120,
30012212,
03012210,
30030030,
03021120,
30030030,
02023040,//80
#GOGOEND
10022202,
22022202,
10022202,
22022020,
12,
02,
02,
00000003,
,
,
#END
COURSE:Normal
LEVEL:5
#START
#SCROLL 0.5
#MEASURE 8/4
10012000,
01012000,
10012000,
01012000,
10012000,
01012000,
10012000,
01012000,//8
#GOGOSTART
10012022,
01012000,
10012022,
01012000,
10012022,
01012000,
10012022,
01012000,
10012002,
22022000,
10012002,
22022000,
10010050,
000000000000000000000008000000000000000000000000,
30030060,
000000000008000000000000300000000000400000000000,//24
#GOGOEND
30012000,
03012000,
30012000,
03012000,
30012000,
03012000,
30030030,
03000000,
30012000,
03012000,
30012000,
03012000,
30030030,
03000000,
30030030,
0034,
10022202,
22022000,
10022202,
22022000,
10022202,
22022000,
1111,
1222,//48
#GOGOSTART
10201210,
10201210,
10201210,
1000200010201003,
00201210,
10201210,
10201210,
10201110,//56
#GOGOEND
11,
11,
11,
11,
12,
12,
30030060,
000000000008000000000000300000000000400000000000,//64
#GOGOSTART
30012022,
03012000,
30012022,
03012000,
30012022,
03012000,
30030030,
03000000,
30012022,
03012000,
30012022,
03012000,
30030030,
03000000,
30030030,
0034,//80
#GOGOEND
10022202,
22022000,
10022202,
22022000,
12,
02,
02,
00000003,
,
,
#END
COURSE:Easy
LEVEL:4
#START
#SCROLL 0.5
#MEASURE 8/4
12,
01002000,
12,
01002000,
12,
01002000,
12,
01002000,//8
#GOGOSTART
12,
01012000,
12,
01012000,
12,
01012000,
12,
01012000,
12,
20022000,
12,
20022000,
10010050,
000000000000000000000008000000000000000000000000,
30030060,
000000000008000000000000300000000000400000000000,//24
#GOGOEND
32,
03012000,
32,
03012000,
32,
03012000,
30030030,
03000000,
32,
03012000,
32,
03012000,
30030030,
03000000,
30030030,
0034,
1,
2,
1,
2,
1,
2,
11,
1,//48
#GOGOSTART
1011,
1011,
1011,
1000000010001003,
0011,
1011,
1011,
10001110,//56
#GOGOEND
11,
11,
11,
11,
12,
12,
30030060,
000000000008000000000000300000000000400000000000,//64
#GOGOSTART
32,
03012000,
32,
03012000,
32,
03012000,
30030030,
03000000,
32,
03012000,
32,
03012000,
30030030,
03000000,
30030030,
0034,//80
#GOGOEND
1,
22,
1,
22,
1,
02,
,
00000003,
,
,
#END