This commit is contained in:
2026-03-04 23:59:27 +09:00
parent 6e0312f5b4
commit 4b4e2b8c98
1128 changed files with 668765 additions and 0 deletions

347
tja/809.tja Normal file
View File

@@ -0,0 +1,347 @@
//TJADB Project
TITLE:Alkali Rettousei
TITLEJA:アルカリレットウセイ
SUBTITLE:--Kairiki Bear feat. Hatsune Miku/#C.O.M.P.A.S.S.
SUBTITLEJA:かいりきベア feat.初音ミク 「戦闘摂理解析システム#コンパス」より
BPM:158
WAVE:Alkali Rettousei.ogg
OFFSET:-1.701
DEMOSTART:56.385
COURSE:Oni
LEVEL:7
SCOREINIT:700
SCOREDIFF:193
#START
20222220,
2222200022222000,
20222220,
2222200020404000,
#GOGOSTART
10221210,
1111100011222000,
10221210,
1111100010202000,
10221210,
1111100011222000,
10221210,
1111100020000000,
#GOGOEND
#LYRIC Kokoro potsuri
10221201,
001020222020
#LYRIC Haritsume putsuri
1000,
10221201,
001020222020
#LYRIC Shirokuji senobi
1000,
10221201,
001020222020
#LYRIC Itazura ni yami
1020,
10221201,
001020222020
#LYRIC Kokoro koutei
1020,
1000202210200010,
001020221010
#LYRIC Dekizu suri kizu
2020,
10221201,
001020221010
#LYRIC Shinogu kono doku
2020,
10221201,
001020221010
#LYRIC Itarazu kodoku
2020,
10221205,
000000000000000000000008000000000000
#LYRIC Irodotte seiippai ganbattatte makkakka
200000000000,
1000100010112000,
1000100010112000,
11201120,
1011201120002000,
#LYRIC Mukosei rettousei kikitakunai yo
1010201020112000,
1010201020112000,
1011200010112000,
30303440,
#GOGOSTART
#LYRIC Luluka lilika lula lilalulala kirai ni naranaide
1120102011201020,
1022102011202000,
1000102210001022,
1022202220222000,
#LYRIC Dorori doro mamire sonzai no igi o shiritakute
1120102011201020,
1022102011202010,
1000102210001022,
500000000000000000000000000000000008000000000000,
#LYRIC Luluka lilika lula lilalulala oite ikanaide
1120102011201020,
1022102011202000,
1000102210001022,
1022202220222000,
#LYRIC Kurari kuragari no naka yue ni mae mo mienakute
1120102011201020,
1022102011202010,
1000102210001022,
500000000000000000000000000000000008000000000000,
#GOGOEND
#LYRIC
10221220,
1111100011222000,
10221220,
1111100010202000,
10221220,
1111100011222000,
10221220,
1111100040000000,
#END
COURSE:Hard
LEVEL:5
BALLOON:17
SCOREINIT:850
SCOREDIFF:265
#START
22,
2,
22,
20000220,//4
#GOGOSTART
10112210,
11101220,
10112210,
11101220,
10112210,
11101220,
10112210,
11102000,//12
#GOGOEND
10222201,
0001,
10222201,
0001,
10222201,
0001,
10222201,
0001,
10222201,
00201120,
10222201,
00201120,
10222201,
00201120,
10222205,
000000000000000000000008000000000000000000000000,
1112,
1112,
1212,
1122,
1212,
1212,
7,
0800,//36
#GOGOSTART
11221122,
11221000,
30220220,
600000000000000000000000000000000008000000000000,
11221122,
11221001,
10220111,
500000000000000000000000000000000008000000000000,
11221122,
11221000,
30220220,
600000000000000000000000000000000008000000000000,
11221122,
11221001,
10220111,
500000000000000000000000000000000008000000000000,//52
#GOGOEND
10221220,
11101220,
10221220,
11101220,
10221220,
11101220,
10221220,
11104000,
,
,
#END
COURSE:Normal
LEVEL:4
BALLOON:14
#START
22,
2,
22,
20000220,//4
#GOGOSTART
1110,
10001220,
1110,
10001220,
1110,
10001220,
1110,
2220,//12
#GOGOEND
1200,
0001,
1200,
0001,
1200,
0001,
1200,
0001,
1200,
0201,
1200,
0201,
1200,
0201,
10200005,
000000000000000000000008000000000000000000000000,
1112,
1110,
1112,
1110,
1112,
1112,
7,
0800,//36
#GOGOSTART
10101110,
1110,
33,
600000000000000000000000000008000000000000000000,
10101110,
11102000,
44,
600000000000000000000000000008000000000000000000,
10101110,
1110,
33,
600000000000000000000000000008000000000000000000,
10101110,
11101000,
44,
600000000000000000000000000008000000000000000000,//52
#GOGOEND
1110,
10001220,
1110,
10001220,
1110,
10001220,
1110,
2240,
,
,
#END
COURSE:Easy
LEVEL:3
BALLOON:11
#START
2,
,
2,
,//4
#GOGOSTART
11,
22,
11,
22,
11,
22,
11,
22,//12
#GOGOEND
1,
0001,
1,
0001,
1,
0001,
1,
0001,
1200,
0001,
1200,
0001,
1200,
0001,
10200005,
000000000000000000000008000000000000000000000000,
1110,
2220,
1110,
2220,
1120,
1120,
7,
0800,//36
#GOGOSTART
1110,
1110,
33,
600000000000000000000000000008000000000000000000,
1110,
1110,
44,
600000000000000000000000000008000000000000000000,
1110,
1110,
33,
600000000000000000000000000008000000000000000000,
1110,
1110,
44,
600000000000000000000000000008000000000000000000,//52
#GOGOEND
11,
22,
11,
22,
11,
22,
11,
24,
,
,
#END