This commit is contained in:
2026-03-04 23:59:27 +09:00
parent 6e0312f5b4
commit 4b4e2b8c98
1128 changed files with 668765 additions and 0 deletions

571
tja/81.tja Normal file
View File

@@ -0,0 +1,571 @@
//TJADB Project
TITLE:Excerpt from Symphony No. 7
TITLEJA:交響曲第7番から
SUBTITLE:--Ludwig van Beethoven
SUBTITLEJA:ベートーヴェン
BPM:159.02
WAVE:Excerpt from Symphony No. 7.ogg
OFFSET:-2.642
DEMOSTART:27.929
COURSE:Oni
LEVEL:7
SCOREINIT:540
SCOREDIFF:145
#START
#MEASURE 3/4
100000000220,
100000000220,
100020100220,
210022,
#BPMCHANGE 161.5
100000000220,
100000000220,
100220102020,
#BPMCHANGE 159.88
100120202010,
100010100220,
221101,
111101,
#BPMCHANGE 160.33
100110100220,
221101,
111101,
#BPMCHANGE 159.97
100220100220,
100001,
100000100220,
100000000110,
100000000110,
100220100220,
100220100220,
#BPMCHANGE 157.35
5,
#BPMCHANGE 160.84
000000000008000000100200100100101010,
#GOGOSTART
100220100220,
#BPMCHANGE 160.1
100220100220,
100220100220,
#BPMCHANGE 159.22
101000000110,
100220100220,
100220100220,
#BPMCHANGE 160.21
100110102020,
100220100110,
100110100110,
102020100110,
100110100110,
122102,
#BPMCHANGE 159.7
122101,
#BPMCHANGE 160.13
111222,
122102,
111222,
#BPMCHANGE 161.76
111222,
111222,
122122,
#BPMCHANGE 153.51
#SCROLL 1.05
122122,
#BPMCHANGE 160
#SCROLL 1
500000000000000008000000000100100000,
#MEASURE 4/4
#GOGOEND
#BPMCHANGE 131.32
#SCROLL 1.21
1011100000000000,
#BPMCHANGE 119.55
#SCROLL 1.33
1011100000000000,
#BPMCHANGE 143.04
#SCROLL 1
1011221010112210,
#BPMCHANGE 144.31
1011221010022010,
1011221010112210,
1011221010222000,
#BPMCHANGE 143.99
1022112010221120,
1022112020201020,
1022112010221120,
#MEASURE 2/4
#BPMCHANGE 144
10221120,
#MEASURE 4/4
#BPMCHANGE 144.17
1022200010222000,
1011100010111000,
#BPMCHANGE 143.91
10211122,
12121212,
#BPMCHANGE 142.84
1011100010111000,
#BPMCHANGE 145.01
#SCROLL 0.99
1022200010222000,
#BPMCHANGE 144
#SCROLL 1
10211122,
#BPMCHANGE 144
12121212,
22121212,
22121212,
22121212,
#GOGOSTART
#BPMCHANGE 144.1
500000000000000000000000000000000008000000000000,
11221122,
#BPMCHANGE 143.81
3232,
#BPMCHANGE 144
3232,
#GOGOEND
#BPMCHANGE 143.11
2222,
#BPMCHANGE 144.9
#SCROLL 0.99
22112221,
#BPMCHANGE 144
#SCROLL 1
22112221,
22112221,
#GOGOSTART
500000000000000000000000000000000008000000000000,
11221112,
3000222030002220,
#BPMCHANGE 145.5
#SCROLL 0.98
3000222030002220,
#BPMCHANGE 142.07
#SCROLL 1.01
3011221120001000,
#BPMCHANGE 144
#SCROLL 1
1022112210111110,
#BPMCHANGE 143.11
3011221120001000,
#BPMCHANGE 145.83
#SCROLL 0.98
1022112210111110,
#BPMCHANGE 143.18
#SCROLL 1
31221122,
100100200200100100200200100100200200101010101010,
#BPMCHANGE 144.73
#SCROLL 0.98
1000002220000011,
#BPMCHANGE 144
1,
#GOGOEND
#END
COURSE:Hard
LEVEL:6
BALLOON:10
SCOREINIT:730
SCOREDIFF:205
SCOREMODE:2
#START
#BPMCHANGE 160
#MEASURE 3/4
100001,
100001,
102201,
110000,
100001,
100001,
101122,
100001,
101102,
202201,
101101,
101102,
202201,
101100,
1,
300001,
1,
300001,
100001,
100110100000,
100110100000,
9,
00000000
00080000
00000000,
#GOGOSTART
50000000
00080000
00001000,
50000000
00000008
00001000,
101101,
10005000
00080000
00001000,
50000000
00080000
00001000,
50000000
00080000
00001000,
101122,
100001,
101101,
101102,
202202,
202200,
101100,
202200,
111100,
222200,
111200,
111200,
111200,
#BPMCHANGE 156.8
#SCROLL 1.02
111222,
50000000
00080000
00000000,
#GOGOEND
#MEASURE 4/4
#BPMCHANGE 136
#SCROLL 1.17
1011100000000000,
#BPMCHANGE 116
#SCROLL 1.37
1011100000000000,
#BPMCHANGE 144.3
#SCROLL 1
1011100010000000,
1011100010022000,
1011100010000000,
1011100020222000,
1022200010000000,
1022200020202000,
1011100010000000,
#MEASURE 2/4
10111000,
#MEASURE 4/4
1011100010111000,
2022200020222000,
10011111,
1111,
1011100010111000,
2022200020222000,
10011111,
1111,
11102220,
11102220,
22201110,
#GOGOSTART
50000000
00000000
00000008
00000000,
11201120,
33,
33,
#GOGOEND
2222,
22202220,
22202220,
22112211,
#GOGOSTART
50000000
00000000
00000008
00000000,
11221122,
33,
33,
3011100010001000,
1111,
3011100010001000,
1111,
11111111,
50000000
00000000
00000000
00080000,
1000002220000011,
1,
#GOGOEND
0,
#END
COURSE:Normal
LEVEL:4
SCOREINIT:800
SCOREDIFF:293
SCOREMODE:2
#START
#BPMCHANGE 160
#MEASURE 3/4
100001,
1,
11,
110000,
100001,
1,
100101,
1,
12,
101100,
1,
12,
101100,
100001,
1,
300001,
1,
3,
3,
33,
33,
5,
00000008
00000000
00000000,
#GOGOSTART
3,
100001,
11,
50000000
00080000
00000000,
3,
100001,
11,
3,
200202,
22,
200202,
22,
202200,
22,
202200,
22,
202200,
200200,
22,
#BPMCHANGE 156.8
#SCROLL 1.02
22,
50000000
00000008
00000000,
#GOGOEND
#MEASURE 4/4
#BPMCHANGE 136
#SCROLL 1.17
0,
#BPMCHANGE 116
#SCROLL 1.37
0,
#BPMCHANGE 144.3
#SCROLL 1
1110,
1111,
1110,
1130,
2220,
2222,
2220,
#MEASURE 2/4
2,
#MEASURE 4/4
33,
33,
10011010,
1111,
33,
33,
10011010,
1111,
1011,
1011,
1011,
#GOGOSTART
50000000
00000000
00000008
00000000,
50000000
00000000
00000008
00000000,
33,
33,
#GOGOEND
2022,
2022,
2022,
2222,
#GOGOSTART
50000000
00000000
00080000
00000000,
3,
33,
33,
32,
1122,
12,
1122,
1111,
1111,
33,
3,
#GOGOEND
0,
#END
COURSE:Easy
LEVEL:3
SCOREINIT:750
SCOREDIFF:418
SCOREMODE:2
#START
#BPMCHANGE 160
#MEASURE 3/4
1,
1,
11,
1,
1,
1,
11,
1,
1,
11,
1,
1,
11,
1,
1,
3,
1,
3,
3,
33,
33,
5,
00000008
00000000
00000000,
#GOGOSTART
50000000
00000008
00000000,
50000000
00080000
00000000,
33,
3,
50000000
00000008
00000000,
50000000
00080000
00000000,
33,
3,
2,
2,
2,
22,
2,
22,
2,
2,
2,
2,
2,
#BPMCHANGE 156.8
#SCROLL 1.02
2,
50000000
00000000
00080000,
#GOGOEND
#MEASURE 4/4
#BPMCHANGE 136
#SCROLL 1.17
0,
#BPMCHANGE 116
#SCROLL 1.37
0,
#BPMCHANGE 144.3
#SCROLL 1
1,
11,
1,
13,
2,
22,
2,
#MEASURE 2/4
2,
#MEASURE 4/4
11,
11,
1011,
1,
11,
11,
1011,
1,
1011,
1,
1011,
#GOGOSTART
50000000
00000000
00000008
00000000,
0,
33,
33,
#GOGOEND
2,
2,
22,
22,
#GOGOSTART
50000000
00000000
00080000
00000000,
3,
33,
33,
3,
1110,
1,
1110,
11,
1111,
11,
3,
#GOGOEND
0,
#END