This commit is contained in:
2026-03-04 23:59:27 +09:00
parent 6e0312f5b4
commit 4b4e2b8c98
1128 changed files with 668765 additions and 0 deletions

473
tja/814.tja Normal file
View File

@@ -0,0 +1,473 @@
//TJADB Project
TITLE:Aru Fuwa
TITLEJA:或ル不和
SUBTITLE:--aran
SUBTITLEJA:aran
BPM:200
WAVE:Aru Fuwa.ogg
OFFSET:-1.304
DEMOSTART:68.497
COURSE:Oni
LEVEL:10
BALLOON:9
SCOREINIT:360
SCOREDIFF:80
#START
111200111200,
112112111200,
111200111200,
112112111200,
2020202022202022,
2020222022202022,
2020202022202022,
2020122012201000,
1020201012202012,
2010221012202012,
1022201012102012,
2010221020102011,
1022201012202012,
2010221012202012,
1022201012201012,
2010111012102211,
2022101012201012,
2010221210201012,
1022221012102012,
2010221212101211,
100000200200100000100000100200200000100020002000,
100000200000200200100100100020002000100020002000,
1022221020201122,
200000100000200000200000102020200200100200202020,
1022201120201022,
200000100000202020200200200000200000202020202020,
100000200000200000100100202020200000100000200000,
200200100000200000100000200000100000202020101010,
1022201011201012,
200100202020202020202020,
1022201122201121,
200000100100200000200200100000200200100000202020,
1012101121201012,
200100100112100112100112,
1022201122101022,
100100102102102102102102,
100000100100200000100100100100200000100100202020,
21002001,
11211211,
200100100200100100201010,
20000002,
20000002,
22,
22,
22,
02,
22,
0000000040000011,
1022202022202011,
1020222022202011,
1022202012202022,
1020222012202022,
1022202012202022,
2020222012202022,
500000000000000008000000700000000000000000000000,
000000800000100200200000100000200000101010100100,//56
#GOGOSTART
1010201120111020,
1021101120112011,
1010201120111022,
1020102210211022,
1010201120111022,
1021101120112011,
1011201022111122,
100000200200100000200000100100202020100100200200,
1010201120111020,
1021101120112011,
1010201120111022,
2021102210211022,
1112102210121022,
1020102210121022,
100000200100200000201010100000100200100000200200,
100211100100222020201010,//72
#GOGOEND
211200111200,
112112111200,
111200111200,
101020101020101010200022,
111020101020101020101020,
111020101020101020101020,
111020101020111020101020,
111020101020111110111110,
20000001,
10000001,
12,
1000000020001122,//84
#GOGOSTART
1011201021211022,
1020112011221021,
1011201021211022,
100000200200100000200200101010200200100100200200,
1011201021211022,
1020112011221021,
1011201021211022,
1022102211221022,
1111222211112222,
1112221112221120,
111100111200111100111200,
112200111200221100111200,//96
#GOGOEND
3,
#END
COURSE:Hard
LEVEL:8
BALLOON:4,7,7,9,13,20
SCOREINIT:420
SCOREDIFF:100
#START
111100111100,
100100111100,
111100111100,
100100111100,
2020202022202020,
2020222020202000,
2020202022202020,
22101010,
10211221,
01211220,
10211121,
01212120,
10211221,
21211220,
10211211,
0010111010102000,
10211221,
01211220,
10211121,
01212120,
100000200100100000101010,
100000200100101010100000,
1000201010101110,
12107008,
10210210,
2010202220202000,
10210210,
2010201020101110,
10210210,
21700008,
12212212,
21221212,
11211211,
200000100000500000000000000000000000000008000000,
1020201011101020,
21700008,
1011101011101011,
11002001,
11211210,
21121120,
20000002,
20000002,
22,
22,
22,
02,
22,
00004001,
12222221,
12222221,
12221222,
12221222,
12221222,
22221222,
500000000000000008000000700000000000000000000000,
08,//56
#GOGOSTART
11212112,
12112120,
11212112,
12121210,
11212112,
12112120,
11211211,
2011101011102000,
11212112,
12112120,
11212112,
12121210,
21121212,
12121112,
11127000,
0008,//72
#GOGOEND
111100111100,
100100111100,
111100111100,
100100111100,
111100222200,
111100222200,
111100222200,
100010001000100000000000500000000000000008000000,
20000001,
10000001,
12,
1000000020001110,//84
#GOGOSTART
12121212,
12121211,
12121212,
1010102010111011,
11212112,
12112121,
11212112,
12121212,
1011101010111010,
1011101110111010,
7,
0008,//96
#GOGOEND
3,
,
,
#END
COURSE:Normal
LEVEL:7
BALLOON:7,8,10,14
#START
11,
1110,
11,
1110,
2,
2,
2,
2111,
10011001,
01011000,
10011101,
01011000,
10011001,
01011000,
10011011,
01101000,
10011001,
01011000,
10011101,
01011000,
10011020,
20011020,
20011011,
01101000,
10010020,
01000000,
20010020,
01000000,
10010020,
01000000,
20010020,
01001010,
11011011,
01000000,
11011011,
02000000,
11011011,
01002000,
1,
500000000000000000000000000000000008000000000000,
20000002,
20000002,
22,
22,
22,
02,
22,
00004001,
10000001,
10000001,
12,
12,
21,
21,
500000000000000008000000700000000000000000000000,
08,//56
#GOGOSTART
10101101,
11011011,
10101101,
11011110,
10101101,
11011011,
7,
8,
10101101,
11011011,
10101101,
11011110,
10101101,
11011011,
10117000,
0008,//72
#GOGOEND
11,
1110,
11,
1110,
1122,
1120,
1122,
100000000000100000000000500000000000000008000000,
10000001,
10000001,
12,
10002011,//84
#GOGOSTART
10101101,
11011011,
10101101,
11011110,
10101101,
11011011,
10101101,
11011110,
10101101,
10110111,
7,
0008,//96
#GOGOEND
3,
,
,
#END
COURSE:Easy
LEVEL:4
BALLOON:6,6,8,12
#START
11,
1,
11,
1,
2,
2,
2,
500000000000000000000000000000000008000000000000,
11,
12,
500000000000000000000000000000000000000000000008,
0011,
1,
11,
25,
000000000000000000000008000000000000000000000000,
11,
12,
500000000000000000000000000000000000000000000008,
0011,
1,
11,
25,
000000000000000000000000000000000008000000000000,
10010010,
01000000,
10010010,
01000000,
10010010,
01000000,
10010010,
01001010,
10010010,
02000000,
10010010,
02000000,
10010010,
02000000,
1,
500000000000000000000000000000000008000000000000,
2,
2,
22,
2,
22,
02,
22,
,
1,
1,
12,
12,
21,
21,
500000000000000008000000700000000000000000000000,
08,//56
#GOGOSTART
1111,
1110,
2222,
2220,
1111,
1111,
7,
8,
1111,
1110,
2222,
2220,
1111,
1111,
1170,
0008,//72
#GOGOEND
11,
1,
11,
1,
1110,
1110,
1111,
500000000000000000000000000000000008000000000000,
1,
1,
12,
12,//84
#GOGOSTART
2222,
2220,
1111,
1110,
1111,
1111,
2222,
2222,
1111,
1112,
7,
0008,//96
#GOGOEND
3,
,
,
#END