This commit is contained in:
2026-03-04 23:59:27 +09:00
parent 6e0312f5b4
commit 4b4e2b8c98
1128 changed files with 668765 additions and 0 deletions

999
tja/816.tja Normal file
View File

@@ -0,0 +1,999 @@
//TJADB Project
TITLE:Hoshikuzu Struck
TITLEJA:星屑ストラック
SUBTITLE:--t+pazolite
SUBTITLEJA:t+pazolite
BPM:220
WAVE:Hoshikuzu Struck.ogg
OFFSET:-1.805
DEMOSTART:94.526
COURSE:Edit
LEVEL:10
BALLOON:2,2,2
SCOREINIT:270
SCOREDIFF:80
#START
#BARLINEOFF
0000000022222020,
#BARLINEON
3,
2011202011200022,
100000000000000000000000000000200200200000202020,
1000201110201022,
1000000000221212,
2011202011200022,
100100200100000200110100,
100000000000100000000000200000100000500008000000,
300000000000200000100100200000101000200000100000,
200200200200100000200000200000101000200200200200,
700000800000200000100000200010100000200200200000,
100000200100000200100000101010101010200000200000,
100000000000200000100100200000101000200000100000,
200200200200100000200000200000101000200200200200,
700000800000200000100000200010100000200200200000,
100000200100000200100000101010101010200000200000,
10111111,
100000100100100000100000100000101010100100100100,
100010001000100100100100101010101010101010101010,
0020101020112220,
3000101120002010,
00112010,
101010100100500008000000200000000000200000100000,
000000100100201020101020,
1000101120002010,
00112010,
2000202020222020,
200200202020202020200200100000000000000000000000,
3000201110002010,
00211020,
101010100100500008000000100000000000200000100000,
000000200100101022101020,
1000201210002010,
1010201010112010,
2002022020222020,
3004,
#GOGOSTART
1102011120112010,
200200200200200000202020000200200200100000300000,
1102011120112120,
200200202020000200200200100000000000400000000000,
1102011020112010,
200200200200200000202020000200200200100000300000,
1102011020112010,
#GOGOEND
2002022020221020,
#GOGOSTART
1102011120112010,
200200200200200000202020000200200200100000300000,
1102011120112120,
200200202020000200200200100000000000400000000000,
1102011121020211,
2212011122120211,
2112112211112222,
1020201210112000,
#GOGOEND
1000202022222020,
2000200022202020,
2000200022202000,
20202200,
1010101120101010,
000000100100100000100000200000101010100000100000,
2010201011212010,
200200200200100100100100201010100202010100202020,
10111111,
1010101010111010,
1010101010112210,
2210111110111020,
1111111111111111,
1111111111111111,
101010100100100100100100101010100100100100100100,
200200100000200200100000202000000000000000000000,
,
,
,
0004,
1000201000102001,
1010201000112010,
1000201000102211,
1011201202102222,
1000201000102001,
1010201000112010,
1000201000102211,
0011201022102111,
1000101010101111,
1010111111112000,
30140406,
000000000000000000000008000000000000400000000000,
#GOGOSTART
1121221121220111,
2221221022102221,
1121221121221122,
1222102211211222,
1121221121220111,
2221221022102212,
1121221211212212,
000200100100200200100100202020100100200000200000,
1121221121220111,
2221221022102221,
1121221121221122,
1222102211211222,
1211221211220121,
200200100200200100200200100100200200101010101010,
20140403,
0000000020112220,
#GOGOEND
3000201110002010,
00211020,
101010100100500008000000100000000000200000100000,
000000200100101022101020,
1000201110002010,
00211020,
101010100100500008000000100000000000200000100000,
000000100100100100100100200000100000700000800000,
3,
2011202011200000,
3,
#END
COURSE:Oni
LEVEL:10
BALLOON:4,8
SCOREINIT:470
SCOREDIFF:110
#START
#BARLINEOFF
#SCROLL 0.5
,
#BARLINEON
3000000010200020,
#BARLINEOFF
0022100020002000,
#BARLINEON
10010010,
#BARLINEOFF
20020200,
#BARLINEON
10001202,
#BARLINEOFF
0022100020002000,
#BARLINEON
10010010,
#BARLINEOFF
0010000020002220,
#BARLINEON
10001202,
#BARLINEOFF
0022100020002000,
#BARLINEON
10010010,
#BARLINEOFF
2002002010002220,
#BARLINEON
10001202,
#BARLINEOFF
0022100020002000,
#BARLINEON
10010010,
#BARLINEOFF
2002002010102220,
#BARLINEON
11211211,
#BARLINEOFF
11211211,
#BARLINEON
11211211,
#BARLINEOFF
2011101020222020,
#BARLINEON
1000000010002000,
#BARLINEOFF
1012100022201110,
#BARLINEON
500000000008000000000000100100000000200000000000,
#BARLINEOFF
100000100200100000100000200020002000200020002000,
#BARLINEON
1012,
#BARLINEOFF
1012100022201110,
#BARLINEON
20020020,
#BARLINEOFF
0020000010222020,
#BARLINEON
1012,
#BARLINEOFF
1012100022201110,
#BARLINEON
500000000008000000000000100100000000200000000000,
#BARLINEOFF
100000100200100000100000200020002000200020002000,
#BARLINEON
1012,
#BARLINEOFF
1012100022201000,
#BARLINEON
500000000000000000000000000000000008000000000000,
#BARLINEOFF
3378,
#BARLINEON
#MEASURE 4/4
#SCROLL 1
#GOGOSTART
3002102010121020,
1111102211102020,
1002102010121020,
1111102211002000,
1002102010121020,
1111102211102020,
1002102010121020,
#GOGOEND
1001202010112020,
#GOGOSTART
3002102010121020,
1111102211102020,
1002102010121020,
1111102211002000,
1002102011021020,
1002102011021120,
1012102011112222,
,
#SCROLL 0.5
#GOGOEND
1,
#BARLINEOFF
,
#BARLINEON
,
#BARLINEOFF
,
#BARLINEON
1,
#BARLINEOFF
,
#BARLINEON
,
#BARLINEOFF
,
#BARLINEON
10211121,
#BARLINEOFF
11211121,
#BARLINEON
11211121,
#BARLINEOFF
11211121,
#BARLINEON
21212121,
#BARLINEOFF
21212121,
#BARLINEON
2011201020112010,
#BARLINEOFF
00000022,
#BARLINEON
22,
#BARLINEOFF
2022,
#BARLINEON
20220202,
#BARLINEOFF
000000
#SCROLL 1
11,
#BARLINEON
1110101020001020,
1110101020001020,
10220205,
000000000000000000000000000008000000100000100000,
1110101020001020,
1110101020001020,
10120205,
000000000000000000000000000008000000100000100000,
1110101020111010,
1110101020112000,
30440306,
000000000000000000000008000000000000200200200200,
#GOGOSTART
1022102011201020,
1122102011112020,
1022102011201020,
1222102011112222,
1022102011201020,
1122102011112020,
1022102011201020,
2222111120022020,
1022102011201020,
1122102011112020,
1022102011201020,
1222102011112222,
1012102012101020,
1212102012121222,
10440307,
08,
#SCROLL 0.5
#GOGOEND
3012,
#BARLINEOFF
1012100022201110,
#BARLINEON
500000000008000000000000100100000000200000000000,
#BARLINEOFF
100000100200100000100000200020002000200020002000,
#BARLINEON
1000000010002000,
#BARLINEOFF
1012100022201110,
#BARLINEON
500000000008000000000000100100000000200000000000,
#BARLINEOFF
1012100040000000,
#BARLINEON
30001202,
#BARLINEOFF
0022100020002000,
#BARLINEON
3,
#END
COURSE:Hard
LEVEL:7
BALLOON:16,4,4,4,6
SCOREINIT:580
SCOREDIFF:170
#START
#BARLINEOFF
#SCROLL 0.5
,
#BARLINEON
10002202,
#BARLINEOFF
00202020,
#BARLINEON
10010010,
#BARLINEOFF
,
#BARLINEON
10002202,
#BARLINEOFF
0222,
#BARLINEON
10010010,
#BARLINEOFF
01002020,
#BARLINEON
10002202,
#BARLINEOFF
0222,
#BARLINEON
10010010,
#BARLINEOFF
,
#BARLINEON
10002202,
#BARLINEOFF
0222,
#BARLINEON
10010010,
#BARLINEOFF
01002201,
#BARLINEON
10200200,
#BARLINEOFF
10200200,
#BARLINEON
500000000000000000000000000000000000000000000008,
#BARLINEOFF
,
#BARLINEON
1012,
#BARLINEOFF
12,
#BARLINEON
1012,
#BARLINEOFF
1022,
#BARLINEON
1012,
#BARLINEOFF
12,
#BARLINEON
7,
#BARLINEOFF
08,
#BARLINEON
1012,
#BARLINEOFF
12,
#BARLINEON
1012,
#BARLINEOFF
1022,
#BARLINEON
1012,
12,
#BARLINEON
500000000000000000000000000000000000000000000008,
#BARLINEOFF
,//37
#BARLINEON
#SCROLL 1
#GOGOSTART
10101212,
7008,
10101122,
500000000000000000000008000000000000000000000000,
10101212,
7008,
10101122,//44
#GOGOEND
1014,//45
#GOGOSTART
10101212,
7008,
10101122,
500000000000000000000008000000000000000000000000,
10101212,
10101122,
500000000000000000000000000000000000000000000008,
,//53
#SCROLL 0.5
#GOGOEND
1,
#BARLINEOFF
,
#BARLINEON
,
#BARLINEOFF
,
#BARLINEON
1,
#BARLINEOFF
,
#BARLINEON
,
#BARLINEOFF
,
#BARLINEON
1111,
#BARLINEOFF
1111,
#BARLINEON
1111,
#BARLINEOFF
1111,
#BARLINEON
11101110,
#BARLINEOFF
11101110,
#BARLINEON
11111111,
#BARLINEOFF
,
#BARLINEON
22,
#BARLINEOFF
2022,
#BARLINEON
20220202,
#BARLINEOFF
000000
#SCROLL 1
11,
#BARLINEON
1120,
1120,
10120205,
000000000000000000000000000008000000000000000000,
10112010,
10112010,
10120205,
000000000000000000000000000008000000000000000000,
11111111,
11111120,
30340406,
000000000000000000000008000000000000000000000000,//85
#GOGOSTART
10101212,
10221220,
10101212,
10221210,
10101212,
10221220,
10101212,
500000000000000000000000000008000000000000000000,
10111212,
10221220,
10111212,
10221210,
11211211,
21212120,
30340407,
00000800,//101
#SCROLL 0.5
#GOGOEND
1012,
#BARLINEOFF
1020,
#BARLINEON
1012,
#BARLINEOFF
1022,
#BARLINEON
1012,
#BARLINEOFF
1020,
#BARLINEON
1012,
#BARLINEOFF
1040,
#BARLINEON
30002202,
#BARLINEOFF
00202020,
#BARLINEON
3,
#BARLINEOFF
#END
COURSE:Normal
LEVEL:6
BALLOON:9,4,4,4,4
#START
#BARLINEOFF
#SCROLL 0.5
,
#BARLINEON
10,
#BARLINEOFF
02,
#BARLINEON
10010010,
#BARLINEOFF
,
#BARLINEON
10,
#BARLINEOFF
02,
#BARLINEON
10010010,
#BARLINEOFF
01002000,
#BARLINEON
12,
#BARLINEOFF
02,
#BARLINEON
10010010,
#BARLINEOFF
,
#BARLINEON
12,
#BARLINEOFF
02,
#BARLINEON
10010010,
#BARLINEOFF
01002000,
#BARLINEON
10200200,
#BARLINEOFF
10200200,
#BARLINEON
500000000000000000000000000000000000000000000008,
#BARLINEOFF
,
#BARLINEON
1002,
#BARLINEOFF
12,
#BARLINEON
1002,
#BARLINEOFF
12,
#BARLINEON
1002,
#BARLINEOFF
12,
#BARLINEON
7,
#BARLINEOFF
08,
#BARLINEON
1002,
#BARLINEOFF
12,
#BARLINEON
1002,
#BARLINEOFF
12,
#BARLINEON
1002,
#BARLINEOFF
12,
#BARLINEON
500000000000000000000000000000000000000000000008,
#BARLINEOFF
,//37
#BARLINEON
#SCROLL 1
#GOGOSTART
10101110,
7008,
10101110,
500000000000000000000008000000000000000000000000,
10101110,
7008,
10101110,//44
#GOGOEND
1012,//45
#GOGOSTART
10101110,
7008,
10101110,
500000000000000000000008000000000000000000000000,
10101110,
10101110,
500000000000000000000000000000000000000000000008,
,//34
#SCROLL 0.5
#GOGOEND
1,
#BARLINEOFF
,
#BARLINEON
,
#BARLINEOFF
,
#BARLINEON
1,
#BARLINEOFF
,
#BARLINEON
,
#BARLINEOFF
,
#BARLINEON
1110,
#BARLINEOFF
1110,
#BARLINEON
1110,
#BARLINEOFF
1110,
#BARLINEON
1111,
#BARLINEOFF
1111,
#BARLINEON
500000000000000000000000000000000000000000000008,
#BARLINEOFF
,
#BARLINEON
2,
#BARLINEOFF
2,
#BARLINEON
2,
#BARLINEOFF
000
#SCROLL 1
0,
#BARLINEON
12,
12,
10220205,
000000000000000000000000000008000000000000000000,
12,
12,
10220205,
000000000000000000000000000008000000000000000000,
1111,
1112,
30440406,
000000000000000000000008000000000000000000000000,//85
#GOGOSTART
10101110,
20222020,
10101110,
22202000,
10101110,
20222020,
10101110,
500000000000000000000000000008000000000000000000,
10101110,
20222020,
10101110,
22202000,
11101110,
11102220,
30440407,
0008,//101
#SCROLL 0.5
#GOGOEND
1002,
#BARLINEOFF
12,
#BARLINEON
1002,
#BARLINEOFF
12,
#BARLINEON
1002,
#BARLINEOFF
12,
#BARLINEON
1002,
#BARLINEOFF
14,
#BARLINEON
3,
#BARLINEOFF
0222,
#BARLINEON
3,
#END
COURSE:Easy
LEVEL:5
BALLOON:8,3,3,3,3
#START
#BARLINEOFF
#SCROLL 0.5
,
#BARLINEON
1,
#BARLINEOFF
01,
#BARLINEON
1,
#BARLINEOFF
,
#BARLINEON
1,
#BARLINEOFF
01,
#BARLINEON
1,
#BARLINEOFF
02,
#BARLINEON
11,
#BARLINEOFF
01,
#BARLINEON
1,
#BARLINEOFF
,
#BARLINEON
11,
#BARLINEOFF
01,
#BARLINEON
1,
#BARLINEOFF
02,
#BARLINEON
1,
#BARLINEOFF
1,
#BARLINEON
500000000000000000000000000000000000000000000008,
#BARLINEOFF
,
#BARLINEON
1001,
#BARLINEOFF
12,
#BARLINEON
1001,
#BARLINEOFF
12,
#BARLINEON
1001,
#BARLINEOFF
12,
#BARLINEON
7,
#BARLINEOFF
08,
#BARLINEON
1001,
#BARLINEOFF
12,
#BARLINEON
1001,
#BARLINEOFF
12,
#BARLINEON
1001,
#BARLINEOFF
12,
#BARLINEON
500000000000000000000000000000000000000000000008,
#BARLINEOFF
,//37
#BARLINEON
#SCROLL 1
#GOGOSTART
1111,
7008,
1111,
500000000000000000000008000000000000000000000000,
1111,
7008,
1111,//44
#GOGOEND
1,//45
#GOGOSTART
1111,
7008,
1111,
500000000000000000000008000000000000000000000000,
1111,
1111,
500000000000000000000000000000000000000000000008,
,//53
#SCROLL 0.5
#GOGOEND
1,
#BARLINEOFF
,
#BARLINEON
,
#BARLINEOFF
,
#BARLINEON
1,
#BARLINEOFF
,
#BARLINEON
,
#BARLINEOFF
,
#BARLINEON
11,
#BARLINEOFF
11,
#BARLINEON
11,
#BARLINEOFF
11,
#BARLINEON
1110,
#BARLINEOFF
1110,
#BARLINEON
500000000000000000000000000000000000000000000008,
#BARLINEOFF
,
#BARLINEON
2,
#BARLINEOFF
2,
#BARLINEON
2,
#BARLINEOFF
000
#SCROLL 1
0,
#BARLINEON
11,
11,
10110105,
000000000000000000000000000008000000000000000000,
11,
11,
10110105,
000000000000000000000000000008000000000000000000,
1111,
1110,
30330306,
000000000000000000000008000000000000000000000000,//85
#GOGOSTART
1111,
10111000,
1111,
11101000,
1111,
10111000,
1111,
2,
1111,
10111000,
1111,
11101000,
1111,
10111000,
30330307,
00000800,//101
#SCROLL 0.5
#GOGOEND
1001,
#BARLINEOFF
12,
#BARLINEON
1001,
#BARLINEOFF
12,
#BARLINEON
1001,
#BARLINEOFF
12,
#BARLINEON
1001,
#BARLINEOFF
14,
#BARLINEON
3,
#BARLINEOFF
0111,
#BARLINEON
3,
#END