This commit is contained in:
2026-03-04 23:59:27 +09:00
parent 6e0312f5b4
commit 4b4e2b8c98
1128 changed files with 668765 additions and 0 deletions

523
tja/818.tja Normal file
View File

@@ -0,0 +1,523 @@
//TJADB Project
TITLE:Dont Stop the Game
TITLEJA:Don't Stop the Game
SUBTITLE:--DJ Myosuke
SUBTITLEJA:DJ Myosuke
BPM:175
WAVE:Dont Stop the Game.ogg
OFFSET:-1.365
DEMOSTART:86.393
COURSE:Oni
LEVEL:10
BALLOON:4,6,4,6,4
SCOREINIT:370
SCOREDIFF:90
#START
11111111,
100000100000100000100000100000100000100000100000100010001000100010001000100100100100100000000000,
34,
600000000000000000000008000000700000000000800000,
110000200110000110000200,
000000101000200000000000101000200000100200200200,
110000200110000110000200,
100000101000200200200000100100200000300000000000,
110000200110000110000200,
000000101000200000000000101000200000100200200200,
101000000100200000101000200000100200101010200000,
101000000000101000200000100100200000300000000000,
100000102020200000100100100000100200000200100000,
1222001010210211,
1012021110120210,
112020100011201000400000,
100000202020100000200200200000100200000200100000,
200200200100000000100200101010200100000200200200,
100000200100000200100200101010200100000200200200,
1000000000002222,
110000200110000110000200,
100000101000200100000200101000200000300000000000,
110000200110000110000200,
100000101000200100000200101000200000300000000000,
101000000100200000101000000000101000200000200000,
100000101000200100000200101000200000101010200000,
101000000100200000101000200200200100200100100100,
1223,
#GOGOSTART
1012012111012012,
101010200000100200100100100000000200000000200000,
1012012111012111,
0020002210210110,
1012012111012012,
101010200000100200100100100000100200000100200000,
101010200200100100200200100100100100200000202020,
1020002210207000,
#GOGOEND
#BARLINEOFF
81
#SCROLL 0.91
01,
#SCROLL 0.82
01
#SCROLL 0.74
01,
#SCROLL 0.67
01
#SCROLL 0.61
01,
#SCROLL 0.55
000000100000
#SCROLL 0.5
000000111111,
#MEASURE 8/4
#BARLINEON
110101200001100100220202,
110101200221100100400000,
110101202102102221201202,
102000100010200020111111100020201010200000101010,
101000100010200000222222100010222010102020202020,
102000100010200010222200
#SCROLL 1
300000000000000000222222,
#MEASURE 4/4
100000000100200000101000000000101000200000200000,
100000101000200100000200101000200000300000200000,
101000000100200000101000000200101000200000200000,
100000100000200000100000101010100200000000000000,
1002102210021022,
1012102110121010,
222020
#SCROLL 3
300000
#SCROLL 1
222020
#SCROLL 2.19
300000,
#SCROLL 1
200020
#SCROLL 1.6
30
#SCROLL 1
2020
#SCROLL 1.37
30
#SCROLL 1
2220
#SCROLL 1.17
30
#SCROLL 1
2020,
34,
600000000000000000000008000000700000000000800000,
#GOGOSTART
1012012111012012,
101010200000100200100100100000100200100200200200,
1012012111021030,
000000200000100200100200101010100200000200100000,
2112012120120122,
1021210122121222,
1012011012027000,
8020001120120120,
1012012021201212,
0010001110104000,
1012012111021222,
000000200000100200000100202020200100000200100000,
1121112202112120,
10102010201020200020202011101000,
10102010102010102011102010101010,
0030303030030040,
1012012112021111,
0120121120120222,
1012012112121111,
00102000102010001110202020202000,
11102020200011102020200011102020,
20001110202020001110202011102000,
300000100000100000100000400000200200202020200000,
600000000000000000000008000000700000000000800000,
#GOGOEND
3,
#END
COURSE:Hard
LEVEL:8
BALLOON:3,3,14,3,3,22,3
SCOREINIT:520
SCOREDIFF:123
#START
11111111,
1110111011101000,
34,
600000000000000000000008000000700000000000800000,
10210102,
0010200010201111,
10210102,
0011200011203000,
10210102,
0010200010201111,
10210102,
1000102011203000,
1010002220020020,
1111002220020020,
1012002220020020,
122102120300,
1010002220020020,
1111002220020020,
1001002210010020,
3000000000001111,
10210102,
0011200011203000,
10210102,
0011200011203000,
10210102,
0011200011203000,
1022201020102010,
1223,
#GOGOSTART
1002001011001010,
1020101110020020,
1002001011001011,
0020002220020020,
1002001011001010,
1020101110010010,
1002001011111010,
1020002210207000,
#GOGOEND
#BARLINEOFF
81
#SCROLL 0.91
01,
#SCROLL 0.82
01
#SCROLL 0.74
01,
#SCROLL 0.67
01
#SCROLL 0.61
01,
#SCROLL 0.55
01
#SCROLL 0.5
01,
#MEASURE 8/4
#BARLINEON
100101200001100100000000,
100101200001100100400000,
100101200100100200200000,
100101200100200200200000,
100101200100100200200000,
7000000000000000
#SCROLL 1
8000000000001111,
#MEASURE 4/4
10210212,
1010222010203000,
1000201022201020,
1010222010200000,
1111,
1010101011101110,
1414,
1444,
34,
600000000000000000000008000000700000000000800000,
#GOGOSTART
1002001011001010,
1020111010202000,
1002001011003030,
0020111010020020,
1002001110020011,
1020111020020020,
1002001002007000,
8020002220020020,
1002001022201111,
0010001110104000,
1002001022201111,
0020020011110020,
9,
09,
8,
0030303030030030,
1002001022201111,
1020102210010010,
1002001022201111,
1020102210010010,
3022203022203022,
2030222030203000,
3000101040002220,
600000000000000000000008000000700000000000800000,
#GOGOEND
3,
,
,
,
#END
COURSE:Normal
LEVEL:7
BALLOON:2,3,3,3,4,8,2,3,3,3,2,13,2
SCOREINIT:630
SCOREDIFF:143
#START
1111,
1111,
34,
600000000000000000000008000000700000000000800000,
10210102,
01201210,
10210102,
01201030,
10210102,
01201210,
10210102,
1113,
1010000020020020,
1010000020020020,
1010000020020020,
1113,
1010000020020020,
1010000020020020,
1000000020020020,
3,
10210102,
01201030,
10210102,
01201030,
10210102,
01201030,
10210100,
2223,
#GOGOSTART
1001001001002000,
01017008,
1001001001001000,
02027008,
1001001001002000,
01017008,
1001001001001000,
02027000,
#GOGOEND
#BARLINEOFF
81
#SCROLL 0.91
01,
#SCROLL 0.82
01
#SCROLL 0.74
01,
#SCROLL 0.67
01
#SCROLL 0.61
01,
#SCROLL 0.55
01
#SCROLL 0.5
01,
#MEASURE 8/4
#BARLINEON
10201100,
10201120,
10201220,
11221220,
10201220,
7
#SCROLL 1
8,
#MEASURE 4/4
10110212,
12101212,
10110212,
12101100,
1111,
11111110,
1414,
1444,
34,
600000000000000000000008000000700000000000800000,
#GOGOSTART
1001001001002020,
0010010070000080,
1001001001001010,
0020020070000080,
2002002010010010,
0020020070000080,
1001002002007000,
8020002010010010,
2002002002002020,
01011040,
1001001001002020,
0010010010010010,
9,
09,
8,
0010101010010010,
2002002002002020,
0010101010010010,
2002002002002020,
0010101010010010,
1002001002001020,
01221020,
30114022,
600000000000000000000008000000700000000000800000,
#GOGOEND
3,
,
,
,
#END
COURSE:Easy
LEVEL:5
BALLOON:5,4,4,4,6,7,5,4,4,4,2,4,4,10,5
SCOREINIT:500
SCOREDIFF:88
#START
11,
1111,
34,
7008,
10110101,
01101000,
10110101,
01101000,
10110101,
01101000,
20220202,
2220,
11002000,
11002000,
11002000,
1110,
11002000,
11002000,
11,
3,
10110101,
01101000,
10110101,
01101000,
10110101,
01101000,
20220202,
2,
#GOGOSTART
1001001001001000,
07000008,
1001001001001000,
07000008,
1001001001001000,
07000008,
1001001001001000,
07000000,
#GOGOEND
#MEASURE 8/4
#BARLINEOFF
8,
,
#BARLINEON
#SCROLL 0.5
10001100,
10001100,
10101110,
10101110,
10101110,
7
#SCROLL 1
8,
#MEASURE 4/4
10110101,
01101000,
10110101,
01101000,
1111,
1111,
0404,
0444,
34,
7008,
#GOGOSTART
1001001001001000,
07000008,
1001001001001000,
07000008,
1001000020020000,
07000008,
1001002002007000,
8,
1001001001002000,
07000008,
1001001001002000,
07000008,
9,
09,
8,
,
2002002002002000,
01011000,
2002002002002000,
01011000,
30030030,
03004040,
3142,
7008,
#GOGOEND
3,
,
,
,
#END