This commit is contained in:
2026-03-04 23:59:27 +09:00
parent 6e0312f5b4
commit 4b4e2b8c98
1128 changed files with 668765 additions and 0 deletions

480
tja/833.tja Normal file
View File

@@ -0,0 +1,480 @@
//TJADB Project
TITLE:Goldfish City
TITLEJA:Goldfish City
SUBTITLE:--Harunaba
SUBTITLEJA:はるなば
BPM:200
WAVE:Goldfish City.ogg
OFFSET:-1.304
DEMOSTART:20.472
COURSE:Oni
LEVEL:10
BALLOON:29,12
SCOREINIT:430
SCOREDIFF:98
#START
100200200200100010001000,
12220010,
1020202022210121,
2010201011120010,
11220000,
11220000,
1010202012122210,
1010202011112020,
1000100020222000,
1020101020222010,
1020101020222010,
21222121,
1000100220222210,
1000102220222210,
1020102220102000,
3000300010212210,//16
#GOGOSTART
1010202011202010,
2022101020101010,
1000221120221110,
200200100100100200200100202020100100202020100100,
1010202011202010,
2022102000102020,
20212211,
2120121021201210,
1010202011202010,
2022101020101010,
2010102020122010,
2112221122111211,
1010202011202020,
2210102000102010,
500000000008000000100000100000200000100000100000,
211200211200200200200100,//32
#GOGOEND
6,
000000000000000000000000000000000000000008000000,
,
,
1112202211221211,
1112202221121211,
1112202211221211,
1112202221121210,
500000000000000000000000000000000000000008000000,
100000200000100000500000000000000000000008000000,
1020102000202220,
1122202011222020,
1112202211212211,
1212201122211111,
2121202211212222,
1121202211212211,
1120112012102222,
1012201000102010,
0011201000102222,
1012201000102010,
0012201000102210,
1012221022112011,
1211211121201020,
1012201020102010,
0022101010221222,
7,
,
8,
21211010,
1210212011222110,
1210212021112210,
2120212021202120,
2211200030004000,//55
#GOGOSTART
1010202011202010,
2022101020101010,
1000221120221110,
200200100100100200200100202020100100202020100100,
1010202011202010,
2022102000102020,
20212211,
2120121021201210,
1010202011202010,
2022101020101010,
2010102020122010,
2112221122111211,
1010202011202020,
2210102000102010,
500000000008000000100000100000200000100000100000,
211200211200200200200100,//81
#GOGOEND
6,
000000000000000000000000000000000000000008000000,
,
12122121,
1000112022122012,
1011221010102211,
1000122012102120,
2011102011102212,
1000221000101122,
1112221221122120,
2210102011211010,
1021101010212211,
1022101022112211,
1122112222112210,
2210102022122010,
1111700000000000,
8,
#END
COURSE:Hard
LEVEL:8
BALLOON:26,10
SCOREINIT:420
SCOREDIFF:120
#START
12220000,
12220010,
12220000,
21210000,
11220000,
11220000,
11220000,
11220020,
1120,
10102001,
10122001,
10102120,
1120,
1122,
10100120,
3000300010010010,//16
#GOGOSTART
11220122,
22102111,
1000222010101000,
2220111022202000,
11220122,
22120122,
20212211,
1110111011101000,
11220122,
22102111,
2020102020222000,
2220222022202000,
11220122,
21120121,
500000000008000000100000100000200000100000100000,
21212221,//32
#GOGOEND
6,
000000000000000000000000000000000000000008000000,
,
,
1002001000102010,
1002001000102000,
1002001000102010,
1002001000102020,
1002001000102010,
1002001000102000,
1002001000102000,
1002001000222000,
1002001000201020,
1002001000201010,
1002001000201020,
12250000,
000000000000000000000000000000000000000008000000,
10210121,
01020122,
10210121,
01020122,
10210121,
01020112,
10210102,
02211210,
7,
,
8,
21210000,
11220000,
11220000,
11220000,
21213040,//55
#GOGOSTART
11220122,
22102111,
1000222010101000,
2220111022202000,
11220122,
22120122,
20212211,
1110111011101000,
11220122,
22102111,
2020102020222000,
2220222022202000,
11220122,
21120121,
500000000008000000100000100000200000100000100000,
21212221,//81
#GOGOEND
6,
000000000000000000000000000000000000000008000000,
,
,
10210121,
10210121,
10210121,
10210121,
10210112,
1011101000201020,
1000201000111020,
1000201000222020,
1000201000111020,
10212122,
11211121,
1700,
8,
,
,
,
#END
COURSE:Normal
LEVEL:7
BALLOON:19,7
#START
1,
1,
1,
2,
1,
1,
1,
2002,
1120,
1120,
10102001,
1120,
1122,
1120,
1102,
3320,//16
#GOGOSTART
10200120,
1120,
12,
500000000000000000000000000000000000000008000000,
10200120,
1220,
12,
21212121,
10200120,
1120,
12,
500000000000000000000000000000000000000008000000,
10200120,
1120,
11,
2222,//31
#GOGOEND
6,
000000000000000000000000000000000000000008000000,
,
,
10010100,
10010100,
10010100,
10010100,
10010102,
10010100,
10010102,
10010100,
10010102,
10010100,
10010100,
10050000,
000000000000000000000000000000000000000008000000,
10010002,
01020000,
10010002,
02020000,
10010002,
02020000,
10010002,
02020000,
7,
,
8,
2200,
1111,
1111,
1111,
2034,//55
#GOGOSTART
10200120,
1120,
12,
500000000000000000000000000000000000000008000000,
10200120,
1220,
12,
21212121,
10200120,
10200120,
12,
500000000000000000000000000000000000000008000000,
10200120,
1120,
11,
2222,//81
#GOGOEND
6,
000000000000000000000000000000000000000008000000,
,
,
10200100,
10200100,
10200100,
10200100,
10110110,
10110220,
10110110,
10110220,
10110110,
10110220,
10110110,
1700,
8,
,
,
,
#END
COURSE:Easy
LEVEL:4
BALLOON:15,5
#START
1,
1,
1,
1,
2,
2,
2,
1,
12,
12,
12,
1,
12,
12,
1,
3,//16
#GOGOSTART
12,
1122,
12,
500000000000000000000000000008000000000000000000,
12,
1122,
12,
2222,
12,
1122,
12,
500000000000000000000000000008000000000000000000,
12,
1122,
12,
2222,//31
#GOGOEND
6,
000000000000000000000000000000000000000008000000,
,
,
10010000,
10010000,
10010000,
10010000,
10010100,
10010100,
10010100,
10010100,
10020200,
10020200,
10020200,
10050000,
000000000000000000000000000008000000000000000000,
10020001,
00020000,
10020001,
02020000,
10020001,
00020000,
10020001,
01020000,
7,
,
8,
,
1200,
1200,
1200,
2230,//55
#GOGOSTART
12,
1122,
12,
500000000000000000000000000008000000000000000000,
12,
1122,
12,
2222,
12,
1122,
12,
500000000000000000000000000008000000000000000000,
12,
1122,
12,
2222,//81
#GOGOEND
6,
000000000000000000000000000000000000000008000000,
,
,
1100,
10100200,
1100,
10100200,
10100100,
10100200,
10100100,
10100200,
10100100,
10100200,
10100100,
1700,
8,
,
,
,
#END