This commit is contained in:
2026-03-04 23:59:27 +09:00
parent 6e0312f5b4
commit 4b4e2b8c98
1128 changed files with 668765 additions and 0 deletions

480
tja/835.tja Normal file
View File

@@ -0,0 +1,480 @@
//TJADB Project
TITLE:Whats in the Box?
TITLEJA:What's in the box?
SUBTITLE:--Ujico*
SUBTITLEJA:Ujico*
BPM:227
WAVE:Whats in the Box.ogg
OFFSET:-2.205
DEMOSTART:25.459
COURSE:Oni
LEVEL:10
BALLOON:100,30
SCOREINIT:470
SCOREDIFF:113
#START
#MEASURE 8/4
#SCROLL 0.5
1022120221020221,
0201020102010221,
0221022102210000,//3
#GOGOSTART
10222010102000101022201010101022,
20100010102220100020201000202010,
100000200200200000100000100000200000000000100000100000200200200000100000100000100000100000202020,
200000100000000000100000100000202020200000100000000000100200100000100000000000100000000000100000,
100100100200200111100100000100200100000100222200,
10222010201020100010201022222020,
0222222210222222,//10
#GOGOEND
1,
1022120100121020,
10200020102000100000102022202000,
1022120122121020,
1202100100102211,//15
#GOGOSTART
10022010002020101002201110102220,
100000000200200000101010100000200000000000100000000000000200200000100000200200200000200000000000,
10022010002020101002201110102220,//18
#GOGOEND
100000000200200000101010100000200000000000100000000000000200200000101010100000100000100000100000,//19
#GOGOSTART
100000200100100200200100001010100200100000102020,
10001020201000100010201022202000,//21
#GOGOEND
100200000200100200100000100222200200100200200200,
1221022122210000,
10001210001210000010112220101020,
000000100000200000100000000000100200100000000000000000200200200200200200100100100100100010001000,//25
#GOGOSTART
200222211112,
200000001000100010001000200020001000100020002000100000200000200000100000200200200000200000000000,//27
#GOGOEND
10200010102220111020001010221022,
100000200000000000100000100000200000000000100100100000000000000000101010100000100000100000100000,//29
#GOGOSTART
7,
,
,//32
#GOGOEND
8,//33
#GOGOSTART
30000000200020202000202020002022,
200000000000200000202020200000000000200000200200200000000000200000200000200000000000200000200000,
22222220200020202000202020002022,//36
#GOGOEND
10202022102020201111111020201000,//37
#GOGOSTART
22102210002010100000002210201000,
22102210002211100020102022101000,
22102022101020200020202210201000,//40
#GOGOEND
100000200100200200000100000200200111100100100100,//41
#GOGOSTART
10022010022010111010121010102000,
10022010002211101002201022202000,
11102011102220111002201110102220,//44
#GOGOEND
100000000200200000101010100000200000000000100000000000200200200000100000000000000000000000000000,//45
#GOGOSTART
10101022101210221010101120102000,
10101012101210221010101022202000,
100000100000100000100200100000200200200000101010100000200000200000100000200200100000200000000000,
10121010222220102020201000000000,//49
#GOGOEND
100000100000100000100000202020200000200000100000000010001000100000200000200000100100100020002000,
100000100000200200200000100000101010100000100000000000100000200000100000200200200000200000000000,
100200200100100200100200100222200200100200200200,
100200200111100200200111100100200700000000000000,
#MEASURE 1/4
#BPMCHANGE 259.666
#SCROLL 1
,
#MEASURE 1/8
#BPMCHANGE 299.186
,
#BPMCHANGE 229.369
,
#MEASURE 1/4
#BPMCHANGE 258.071
,
#BPMCHANGE 182.156
,
#BPMCHANGE 138.978
8,
#END
COURSE:Hard
LEVEL:7
BALLOON:55,7,35
SCOREINIT:710
SCOREDIFF:180
#START
#MEASURE 8/4
#SCROLL 0.5
1000200011022001,
0001000100010001,
0001000100040000,//3
#GOGOSTART
3001200110012001,
1001200300030001,
1001200110012001,
1001200300030001,
1001200300030001,
1001200300012003,
04,//10
#GOGOEND
3,
1000200100102000,
1000200100102000,
1000200100102000,
1000200100102200,//15
#GOGOSTART
1022020110110200,
1022020300110200,
1022020110110200,//18
#GOGOEND
1022020300030000,//19
#GOGOSTART
1000201100102020,
2010220201103000,//21
#GOGOEND
10222020,
1022020300030000,
2002003000000000,
0222003000000000,//25
#GOGOSTART
3002222002000000,
1000202020020020,//27
#GOGOEND
1001200110012001,
1001200110000000,//29
#GOGOSTART
9,
,
0900,//32
#GOGOEND
8,//33
#GOGOSTART
3222,
2222,
2222,//36
#GOGOEND
22227008,//37
#GOGOSTART
1022001100022010,
1022001100022010,
1022001100022010,//40
#GOGOEND
1022020300030000,//41
#GOGOSTART
1022020110110200,
1022020110110200,
1022020110110200,//44
#GOGOEND
1122020300030000,//45
#GOGOSTART
1100110011102020,
1100110011103000,
1110200011101000,
1122020300030000,//49
#GOGOEND
1000201100102020,
2010220101103000,
10222020,
7,
#MEASURE 1/4
#SCROLL 1
,
#SCROLL 1.05
,
#SCROLL 0.87
,
#SCROLL 1.02
,
#SCROLL 0.75
,
#BPMCHANGE 150
#SCROLL 1
,
#BPMCHANGE 143
#MEASURE 4/4
#SCROLL 1.05
8,
#END
COURSE:Normal
LEVEL:5
BALLOON:5,5,6,5,10,10,5,37,4,10,10,10,20
#START
#MEASURE 8/4
#SCROLL 0.5
,
,
,//3
#GOGOSTART
3212,
1000200700000080,
1212,
1000200700000080,
1212,
1000200700000080,
04,//10
#GOGOEND
3,
10200120,
10200120,
10200120,
1022,//15
#GOGOSTART
1011000020002000,
1011000700000080,
1011000010110000,//18
#GOGOEND
7008,//19
#GOGOSTART
3202,
1202,//21
#GOGOEND
10222020,
7008,
2002003000000000,
0700000080000000,//25
#GOGOSTART
3022,
1120,//27
#GOGOEND
1212,
1210,//29
#GOGOSTART
9,
,
0900,//32
#GOGOEND
8,//33
#GOGOSTART
3222,
2222,
2222,//36
#GOGOEND
20207008,//37
#GOGOSTART
1011000020002000,
1011000020002000,
1011000020002000,//40
#GOGOEND
7008,//41
#GOGOSTART
1011000020002000,
1011000020002000,
1011000010110000,//44
#GOGOEND
7008,//45
#GOGOSTART
11102220,
11101110,
22201110,
7008,//49
#GOGOEND
1202,
1202,
10222020,
7,
#MEASURE 1/4
#SCROLL 1
,
#SCROLL 1.05
,
#SCROLL 0.87
,
#SCROLL 1.02
,
#SCROLL 0.75
,
#BPMCHANGE 150
#SCROLL 1
,
#BPMCHANGE 143
#MEASURE 4/4
#SCROLL 1.05
8,
#END
COURSE:Easy
LEVEL:3
#START
#MEASURE 8/4
#SCROLL 0.5
,
,
,//3
#GOGOSTART
3202,
000000000000000000000000200000000000000000500000000000000000000000000000000008000000000000000000,
3202,
000000000000000000000000200000000000000000500000000000000000000000000000000008000000000000000000,
3202,
0000200700000008,
03,//10
#GOGOEND
3,
3202,
0202,
0202,
7000000000000800,//15
#GOGOSTART
1011,
7000000000000800,
1011,//18
#GOGOEND
7000000000000800,//19
#GOGOSTART
3001,
1001,//21
#GOGOEND
1033,
3,
3003003000000000,
0700000080000000,//25
#GOGOSTART
31,
2220,//27
#GOGOEND
11,
3330,//29
#GOGOSTART
9,
,
0900,//32
#GOGOEND
8,//33
#GOGOSTART
2220,
2220,
2222,//36
#GOGOEND
7000000000000800,//37
#GOGOSTART
1011,
1022,
2033,//40
#GOGOEND
3,//41
#GOGOSTART
1011,
1022,
2033,//44
#GOGOEND
3,//45
#GOGOSTART
1111,
1111,
1111,
3,//49
#GOGOEND
3001,
1001,
10111010,
7,
#MEASURE 1/4
#SCROLL 1
,
#SCROLL 1.05
,
#SCROLL 0.87
,
#SCROLL 1.02
,
#SCROLL 0.75
,
#BPMCHANGE 150
#SCROLL 1
,
#BPMCHANGE 143
#MEASURE 4/4
#SCROLL 1.05
8,
#END