This commit is contained in:
2026-03-04 23:59:27 +09:00
parent 6e0312f5b4
commit 4b4e2b8c98
1128 changed files with 668765 additions and 0 deletions

495
tja/844.tja Normal file
View File

@@ -0,0 +1,495 @@
//TJADB Project
TITLE:B.B.K.K.B.K.K.
TITLEJA:B.B.K.K.B.K.K.
SUBTITLE:--nora2r/BOF2013
SUBTITLEJA:nora2r
BPM:170
WAVE:BBKKBKK.ogg
OFFSET:-0.103
DEMOSTART:33.985
COURSE:Oni
LEVEL:9
SCOREINIT:380
SCOREDIFF:90
#START
,
,
,
,
1122,
1220,
1122,
10000000220020003000000040000000,
1021002010221020,
1021002010221020,
1021002010221020,
1021002030004000,
1021002010221020,
1021002010221022,
1021002010221020,
1021001010210010,
1021020212021120,
1021020212021120,
1021020212021120,
1021020210004000,
1021020212021120,
1021020212021120,
1021020212021120,
10500840,
#GOGOSTART
1022102011201120,
1022102211201020,
1022102011201120,
1220122010221120,
1022102011201120,
1022102211201020,
1022102011201120,
1220121212121212,
1122102011201120,
1022102211201120,
1122102011201120,
1220122010221120,
1122101120112010,
1021121120102010,
1111111121111111,
#GOGOEND
00000000220020003000000040000000,
10002112,
20002122,
20002221,
20012212,
10002112,
20002122,
20002221,
20012121,
1000100010221020,
1000100010221020,
1000100010221020,
1000102010221020,
1012101010121010,
1012101012121212,
1111111121111111,
20012121,
#GOGOSTART
1022102212021122,
1022102211021221,
1022102212021122,
1022102211021211,
1022102212021122,
1022102211021221,
1022102212021122,
#GOGOEND
10444444,
#GOGOSTART
1021201221021122,
1021201221021122,
1021201221021122,
1021201221021122,
1021201210212012,
1021201210212012,
1021001010210010,
#GOGOEND
100100202020100100400000,
#GOGOSTART
2112021021120120,
2112021021121120,
2112021021120120,
2112021021121121,
2112021021120120,
2112021021121120,
2112021021120120,
2112021021121212,
2112021021120120,
2212021022122120,
2212021022120120,
2112021021121121,
2112021021120120,
2212021022122120,
2212121122122122,
#GOGOEND
10000000220020003000000040000000,
3,
#END
COURSE:Hard
LEVEL:7
SCOREINIT:470
SCOREDIFF:125
#START
,
,
,
,
1122,
1220,
1122,
10223040,
1001002010201000,
1001002010201000,
1001002010201000,
1001002030004000,
1001002010201000,
1001002010201000,
1001002010201000,
1001002010010020,
1001002010201000,
1001002010201000,
1001002010201000,
1001002030004000,
1001002010201000,
1001002010201000,
1001002010201000,
10500840,
#GOGOSTART
12122120,
12212120,
12122120,
1020102020222000,
12122120,
12212120,
12122120,
20222222,
12122120,
12212120,
12122120,
1020102020222000,
12122120,
12212120,
5,
#GOGOEND
80223040,
10002112,
20002122,
20002221,
20012212,
10002112,
20002122,
20002221,
20012121,
10101212,
10101212,
10101212,
10121212,
11111111,
11111111,
50000008,
4,
#GOGOSTART
1000102010201110,
10121220,
1000102010201110,
10121210,
1000102010201110,
10121220,
1000102010201110,
#GOGOEND
10222222,
#GOGOSTART
1000102010201110,
1000102010201110,
1000102010201110,
1000102010201110,
1000111010001110,
1000111010001110,
11,
#GOGOEND
11201140,
#GOGOSTART
11011101,
2020002022202020,
22022202,
1010001011101010,
11011101,
2020002022202020,
22022202,
1010001022202020,
12011201,
2020002022202020,
12021202,
1010002011101010,
12011201,
2020002022202020,
12021202,
#GOGOEND
10223040,
3,
#END
COURSE:Normal
LEVEL:6
BALLOON:20
SCOREINIT:630
SCOREDIFF:185
#START
,
,
,
,
1122,
1220,
1122,
0234,
1011,
1011,
1011,
1034,
1011,
1011,
1011,
11,
10001110,
10001110,
10001110,
1034,
10001110,
10001110,
10001110,
1,
#GOGOSTART
10102220,
11202000,
10102220,
11102020,
10102220,
11202000,
10102220,
2,
10102220,
11202000,
10102220,
11102020,
10102220,
11202000,
10102220,
#GOGOEND
0234,
1,
1,
2,
2,
1,
1,
2,
2,
10101110,
10101110,
10101110,
10101110,
11111110,
11111110,
5008,
4,
#GOGOSTART
10112020,
10222000,
10112020,
10112020,
10112020,
10222000,
10112020,
#GOGOEND
2,
#GOGOSTART
5008,
5008,
5008,
5008,
9,
,
0008,
#GOGOEND
,
#GOGOSTART
11011101,
11011010,
22022202,
22022020,
11011101,
11011010,
22022202,
22022020,
11011101,
11011010,
22022202,
22022020,
11011101,
11011010,
5,
#GOGOEND
8234,
3,
#END
COURSE:Easy
LEVEL:4
BALLOON:18
SCOREINIT:500
SCOREDIFF:155
#START
,
,
,
,
1111,
2220,
1111,
0033,
1011,
1011,
1011,
1033,
1011,
1011,
1011,
11,
1011,
1011,
1011,
1033,
1011,
1011,
1011,
1,
#GOGOSTART
1111,
2220,
1111,
2222,
1111,
2220,
1111,
2,
1111,
2220,
1111,
2222,
1111,
2220,
1111,
#GOGOEND
0033,
1,
1,
2,
2,
1,
1,
2,
2,
11,
11,
11,
11,
1111,
1111,
50000800,
4,
#GOGOSTART
1111,
2220,
1111,
2222,
1111,
2220,
1111,
#GOGOEND
2,
#GOGOSTART
5008,
5008,
5008,
5008,
9,
,
0008,
#GOGOEND
,
#GOGOSTART
11,
1011,
22,
2022,
11,
1011,
22,
2022,
11,
1011,
22,
2022,
11,
1011,
5,
#GOGOEND
8033,
3,
#END