This commit is contained in:
2026-03-04 23:59:27 +09:00
parent 6e0312f5b4
commit 4b4e2b8c98
1128 changed files with 668765 additions and 0 deletions

764
tja/846.tja Normal file
View File

@@ -0,0 +1,764 @@
//TJADB Project
TITLE:Cutie☆Demonic☆Majin Emo‼
TITLEJA:キューティー☆デモニック☆魔人エモ!!
SUBTITLE:--Yuuma Mizonokuchi feat. Ai Oosera
BPM:190
WAVE:Cutie Demonic Majin Emo!!.ogg
OFFSET:-1.368
DEMOSTART:48.414
COURSE:Oni
LEVEL:10
BALLOON:2
SCOREINIT:270
SCOREDIFF:70
#START
#GOGOSTART
1111201111112011,
1111201111112011,
1111201111112011,
1111201111112011,
1011201020201011,
100000100100200000100000200020002000100010001000,
1011201020111040,
04044000,//8
#GOGOEND
22002200,
22222000,
10211021,
11201121,
10211021,
11203300,
1011201110112010,
1011201110112000,
2011201021112010,
1121121120002000,
1010200011102011,
1010200011102010,
1010200011102011,
1010201011102010,
22122212,
02122121,
2011201120112011,
2022202210112010,
0010200011102010,
0010201020112000,
#MEASURE 5/4
10102010101120//29-1
#SCROLL 1.75
#GOGOSTART
304000,//29-2
#SCROLL 1
#GOGOEND
10102010101120//30-1
#SCROLL 1.75
#GOGOSTART
304000,//30-2
#SCROLL 1
#GOGOEND
11102010201120//31-1
#SCROLL 1.75
#GOGOSTART
304000,//31-2
#SCROLL 1
#GOGOEND
11102010201120//32-1
#SCROLL 1.75
#GOGOSTART
304000,//32-2
#MEASURE 4/4
#SCROLL 1
#GOGOEND
3003003003003030,
600000000000000000000000000000000008000000200000,
500000000000000000000000000000000000000008000000,
1,
7080222212221010,//37
#GOGOSTART
1110201111102012,
1110201111102012,
1020112011210120,
1020112011212010,
1121112111211121,
1121112111211120,
1011201110112040,
000000400000100000200200100000101010200000100100,
1020112011210120,
1020112011211120,
1020112011210120,
1020112011212010,
1121112111211121,
1121112111211120,
1011201110112011,
1021121121121120,//53
#GOGOEND
44044022,
11112000,
1011202010121010,
1011202010121010,
1011202010221010,
1111202010221111,
100000100100200000200000100000102020100000100100,
100000100100200000200000100000102020100000100100,
100000100100200000200000100000202020100000100100,
100000100100200000200000100000200200100100101010,
10201121,
01201//65-1
#SCROLL 1.75
#GOGOSTART
340,//65-2
#SCROLL 1
#GOGOEND
10201121,
01201//67-1
#SCROLL 1.75
#GOGOSTART
340,//67-2
#SCROLL 1
#GOGOEND
10201121,
012//69-1
#SCROLL 1.75
#GOGOSTART
34000,//69-2
#SCROLL 1
#GOGOEND
1111202010102210,
111120//71
#SCROLL 1.75
#GOGOSTART
3040000000,
#MEASURE 2/4
#SCROLL 1
,//72
#MEASURE 5/4
#GOGOEND
1121211210,
100100200100200100202020101010,
10102010201011201000,
10102010201011221220,
#MEASURE 4/4
3003003003003030,
600000000000000000000000000000000008000000200000,
500000000000000000000000000000000000000008000000,
2222222210001010,//80
#GOGOSTART
1110201111102012,
1110201111102012,
1020112011210120,
1020112011212010,
1121112111211121,
1121112111211120,
1011201110112040,
000000400000100000200200100000101010200000100100,
1020112011210120,
1020112011211120,
1020112011210120,
1020112011212010,
1121112111211121,
1121112111211120,
2102102121021021,
100000200100100200100100200000101010200000100000,//96
#GOGOEND
44004400,
22222000,//98
#GOGOSTART
1111211111112111,
1111211111112111,
1111211111112111,
1111211111112111,
1011201020201011,
100000100100200000100000200020002000100010001000,
1011201020111040,
04044000,//106
#GOGOEND
02,//107
#GOGOSTART
3003003003003030,
1212121212121212,
100200100200100200100200101010200000101010200000,
3,//111
#GOGOEND
#END
COURSE:Hard
LEVEL:8
SCOREINIT:290
SCOREDIFF:80
#START
#GOGOSTART
1110100011101000,
1110100011101000,
1110100011101000,
1110100011101000,
10221120,
10221000,
10221124,
04044000,//8
#GOGOEND
22002200,
22222000,
10211021,
11201121,
10211021,
11203300,
10201120,
10211120,
21212120,
1011101110002000,
11201121,
1010200011102000,
11201121,
1010200011102000,
22102212,
02122120,
11111111,
1011101110101020,
01201121,
0010201020111000,
#MEASURE 5/4
1122112//29-1
#GOGOSTART
340,//29-2
#GOGOEND
1122112//30-1
#GOGOSTART
340,//30-2
#GOGOEND
1121212//31-1
#GOGOSTART
340,//31-2
#GOGOEND
1121212//32-1
#GOGOSTART
340,//32-2
#MEASURE 4/4
#GOGOEND
3003003003003030,
600000000000000000000000000000000008000000200000,
500000000000000000000000000000000000000008000000,
1,
0222,//37
#GOGOSTART
1110201110102000,
1110201110102000,
1020102011102050,
000000000000000000000000000000000000000008000000,
11221122,
11221120,
1010201110102050,
000000000000000000000000000000000008000000000000,
12121222,
1020102011102000,
1020102011102010,
500000000000000000000000000000000000000008000000,
11221122,
11221120,
1010201110102050,
000000000000000000000000000000000008000000000000,//53
#GOGOEND
44044022,
11112000,
1011100010111000,
1011100010111000,
1011100010111000,
2022200020222000,
1011100010111010,
1011100010111010,
1011100010111010,
200000200200200000200000500000000000000008000000,
10201121,
01201//65-1
#GOGOSTART
340,//65-2
#GOGOEND
10201121,
01201//67-1
#GOGOSTART
340,//67-2
#GOGOEND
10201121,
012//69-1
#GOGOSTART
34000,//69-2
#GOGOEND
1110202010102000,
111020//71
#GOGOSTART
30400000000,
#MEASURE 2/4
,//72
#MEASURE 5/4
#GOGOEND
1121211010,
1121212010,
1121212020,
1121211020,
#MEASURE 4/4
3003003003003030,
600000000000000000000000000000000008000000200000,
500000000000000000000000000000000000000008000000,
2220222010001000,//80
#GOGOSTART
1110201110102000,
1110201110102000,
1020102011102050,
000000000000000000000000000000000000000008000000,
11221122,
11221120,
1010201110102050,
000000000000000000000000000000000008000000000000,
12121222,
1020102011102000,
1020102011102010,
500000000000000000000000000000000000000008000000,
11221122,
11221120,
3003003030030050,
000000000000000000000000000000000008000000000000,//96
#GOGOEND
44004400,
22222000,//98
#GOGOSTART
1110100011101000,
1110100011101000,
1110100011101000,
1110100011101000,
10221120,
10221000,
10221124,
04044000,//106
#GOGOEND
02,//107
#GOGOSTART
3003003003003030,
11111111,
1110111011101110,
3,//111
#GOGOEND
,
#END
COURSE:Normal
LEVEL:7
BALLOON:7,22,25,36,28,25,7
#START
#GOGOSTART
11101110,
11101110,
11101110,
11101110,
10112020,
10112020,
10112027,
0008,//8
#GOGOEND
22002200,
22222000,
11,
11,
11,
10003300,
10201120,
10201120,
3333,
4440,
10201120,
10201120,
10201120,
10201120,
20202220,
20202220,
10111117,
,
,
8,
#MEASURE 5/4
1000000//29-1
#GOGOSTART
330,//29-2
#GOGOEND
1000000//30-1
#GOGOSTART
330,//30-2
#GOGOEND
1000000//31-1
#GOGOSTART
330,//31-2
#GOGOEND
1000000//32-1
#GOGOSTART
330,//32-2
#MEASURE 4/4
#GOGOEND
9,
,
0900,
8,
,//37
#GOGOSTART
11221020,
11221020,
10201125,
000000000000000000000000000000000008000000000000,
10201120,
10211020,
11221125,
000000000000000000000000000000000008000000000000,
10201120,
10201120,
10201120,
500000000000000000000000000000000008000000000000,
10201120,
10211020,
11221125,
000000000000000000000000000000000008000000000000,//53
#GOGOEND
44044020,
11111000,
7,
,
,
,
80000900,
,
,
0900,
8,
00000//65-1
#GOGOSTART
330,//65-2
#GOGOEND
,
00000//67-1
#GOGOSTART
330,//67-2
#GOGOEND
,
000//69-1
#GOGOSTART
33000,//69-2
#GOGOEND
,
000//71
#GOGOSTART
33000,
#MEASURE 2/4
,//72
#MEASURE 5/4
#GOGOEND
1110101000,
1110101000,
2220202000,
1110101000,
#MEASURE 4/4
9,
,
0900,
8,//80
#GOGOSTART
11221020,
11221020,
10201125,
000000000000000000000000000000000008000000000000,
10201120,
10211020,
11221125,
000000000000000000000000000000000008000000000000,
10201120,
10201120,
10201120,
500000000000000000000000000000000008000000000000,
10201120,
10211020,
5,
000000000000000000000000000000000008000000000000,//96
#GOGOEND
44004400,
22222000,//98
#GOGOSTART
11101110,
11101110,
11101110,
11101110,
10112020,
10112020,
10112027,
0008,//106
#GOGOEND
02,//107
#GOGOSTART
6,
,
000000000000000000000000000000000000000000000008,
,//111
#GOGOEND
,
#END
COURSE:Easy
LEVEL:5
BALLOON:5,19,21,30,24,6
#START
#GOGOSTART
1111,
1111,
1111,
1111,
1011,
1011,
10001017,
0008,//8
#GOGOEND
11001100,
1110,
1,
1,
1,
10003300,
1122,
1120,
3333,
4440,
1212,
1210,
1212,
1210,
2222,
2220,
10101017,
,
,
8,
#MEASURE 5/4
1000000//29-1
#GOGOSTART
330,//29-2
#GOGOEND
1000000//30-1
#GOGOSTART
330,//30-2
#GOGOEND
1000000//31-1
#GOGOSTART
330,//31-2
#GOGOEND
1000000//32-1
#GOGOSTART
330,//32-2
#MEASURE 4/4
#GOGOEND
9,
,
0900,
8,
,//37
#GOGOSTART
1120,
1120,
10102025,
000000000000000000000000000008000000000000000000,
1212,
1210,
10001005,
000000000000000000000000000008000000000000000000,
1122,
1120,
1122,
500000000000000000000000000008000000000000000000,
1212,
1210,
10001005,
000000000000000000000000000008000000000000000000,//53
#GOGOEND
33033000,
1110,
7,
,
,
,
80000900,
,
,
0900,
8,
00000//65-1
#GOGOSTART
330,//65-2
#GOGOEND
,
00000//67-1
#GOGOSTART
330,//67-2
#GOGOEND
,
000//69-1
#GOGOSTART
33000,//69-2
#GOGOEND
,
000//71
#GOGOSTART
33000,
#MEASURE 2/4
,//72
#MEASURE 5/4
#GOGOEND
11110,
11110,
22220,
11110,
#MEASURE 4/4
9,
,
0900,
8,//80
#GOGOSTART
1120,
1120,
10102025,
000000000000000000000000000008000000000000000000,
1212,
1210,
10001005,
000000000000000000000000000008000000000000000000,
1122,
1120,
1122,
500000000000000000000000000008000000000000000000,
1212,
1210,
5,
000000000000000000000000000008000000000000000000,//96
#GOGOEND
33003300,
1110,//98
#GOGOSTART
1111,
1111,
1111,
1111,
1011,
1011,
10002027,
0008,//106
#GOGOEND
02,//107
#GOGOSTART
6,
,
000000000000000000000000000000000000000000000008,
,//111
#GOGOEND
,
#END