This commit is contained in:
2026-03-04 23:59:27 +09:00
parent 6e0312f5b4
commit 4b4e2b8c98
1128 changed files with 668765 additions and 0 deletions

300
tja/847.tja Normal file
View File

@@ -0,0 +1,300 @@
//TJADB Project
TITLE:Gudetama Theme Song
TITLEJA:ぐでたまテーマソング
SUBTITLE:--Gudetama/Gudetama
BPM:128
WAVE:Gudetama Theme Song.ogg
OFFSET:-1.978
DEMOSTART:1.978
COURSE:Oni
LEVEL:3
SCOREINIT:1050
SCOREDIFF:363
#START
#GOGOSTART
100200101200,
100200101200,
100200101201,
1110,
100200101200,
100200101200,
100200101201,
1110,//8
#GOGOEND
100100101200,
100100101200,
100100101200,
300300302200,
100001100200,
100001100000,
100001100200,
100001100100,
100001100200,
100001100000,
100001100102,
1110,//20
#GOGOSTART
100200101200,
100200101200,
100200101201,
1110,
100200101200,
100200101200,
100200101201,
1110,//28
#GOGOEND
101200101200,
101101102200,
101200101200,
101101102200,
301200101200,
102102100000,
#BPMCHANGE 64
#SCROLL 2
,//35
#BPMCHANGE 128
#SCROLL 1
#GOGOSTART
100200101200,
100200101200,
100200101201,
1110,
100200101200,
100200101200,
100200101201,
1110,
100200101201,
1110,
300200101200,
3360,
000000000000000000000000000000000000000000000008,//48
#GOGOEND
#END
COURSE:Hard
LEVEL:1
BALLOON:16,16,16,16,16,16,16,25
SCOREINIT:2670
SCOREDIFF:610
#START
#GOGOSTART
1120,
1120,
7,
08,
1120,
1120,
7,
08,//8
#GOGOEND
11,
22,
12,
1110,
1011,
1,
2022,
2,
1011,
1,
5,
000000000000000000000008000000000000000000000000,//20
#GOGOSTART
1120,
1120,
7,
08,
1120,
1120,
7,
08,//28
#GOGOEND
11,
1110,
22,
2220,
33,
3330,
#BPMCHANGE 64
#SCROLL 2
,//35
#BPMCHANGE 128
#SCROLL 1
#GOGOSTART
1120,
1120,
7,
08,
1120,
1120,
7,
08,
7,
08,
3330,
9,
09,//48
#GOGOEND
8,
#END
COURSE:Normal
LEVEL:1
BALLOON:14,14,14,14,14,14,14,18
#START
#GOGOSTART
33,
33,
7,
08,
33,
33,
7,
08,//8
#GOGOEND
1,
1,
1,
1,
11,
1,
22,
2,
11,
1,
5,
000000000000000000000008000000000000000000000000,//20
#GOGOSTART
33,
33,
7,
08,
33,
33,
7,
08,//28
#GOGOEND
11,
1,
22,
2,
33,
3,
#BPMCHANGE 64
#SCROLL 2
,//35
#BPMCHANGE 128
#SCROLL 1
#GOGOSTART
33,
33,
7,
08,
33,
33,
7,
08,
7,
08,
33,
9,
09,//48
#GOGOEND
8,
#END
COURSE:Easy
LEVEL:1
BALLOON:10,10,10,10,10,10,10,15
#START
#GOGOSTART
3,
3,
7,
08,
3,
3,
7,
08,//8
#GOGOEND
1,
,
1,
,
1,
1,
2,
2,
1,
1,
5,
000000000000000000000008000000000000000000000000,//20
#GOGOSTART
3,
3,
7,
08,
3,
3,
7,
08,//28
#GOGOEND
1,
1,
2,
2,
3,
3,
#BPMCHANGE 64
#SCROLL 2
,//35
#BPMCHANGE 128
#SCROLL 1
#GOGOSTART
3,
3,
7,
08,
3,
3,
7,
08,
7,
08,
3,
9,
09,//48
#GOGOEND
8,
#END