tja
This commit is contained in:
565
tja/851.tja
Normal file
565
tja/851.tja
Normal file
@@ -0,0 +1,565 @@
|
||||
//TJADB Project
|
||||
TITLE:Kien Banjou Kagura
|
||||
TITLEJA:気焔万丈神楽
|
||||
SUBTITLE:--Penoreri
|
||||
SUBTITLEJA:ぺのれり
|
||||
BPM:200
|
||||
WAVE:Kien Banjou Kagura.ogg
|
||||
OFFSET:-1.419
|
||||
DEMOSTART:48.669
|
||||
|
||||
COURSE:Oni
|
||||
LEVEL:10
|
||||
SCOREINIT:280
|
||||
SCOREDIFF:70
|
||||
|
||||
|
||||
#START
|
||||
|
||||
|
||||
22000000,
|
||||
000000000000000000000111,
|
||||
22000000,
|
||||
000000000000000000000111,
|
||||
2020102000112020,
|
||||
1020001120112011,
|
||||
2021212121212121,
|
||||
0000000022112221,//8
|
||||
|
||||
#GOGOSTART
|
||||
1010202220201010,
|
||||
2022202012112010,
|
||||
1010202220201010,
|
||||
2022201122112010,
|
||||
1010202220201010,
|
||||
2022202012112010,
|
||||
1010202220201010,
|
||||
2020102022112221,
|
||||
1010202220201010,
|
||||
2022202012112010,
|
||||
1010202220201010,
|
||||
2022201122112010,
|
||||
1011202220201011,
|
||||
2022202012112020,
|
||||
1012212212212212,
|
||||
2112112122112211,//24
|
||||
|
||||
#GOGOEND
|
||||
2002002000112020,
|
||||
1020120120112222,
|
||||
1020201120120120,
|
||||
100000200000100200000100200000101010200000000000,
|
||||
102022202122,
|
||||
122121122122,
|
||||
1111201201201011,
|
||||
1020120122112222,
|
||||
1010202210102022,
|
||||
1020102110101020,
|
||||
1010202210102022,
|
||||
1020102112121222,
|
||||
100000101010200000100000000200100000200000100000,
|
||||
200200100000200000100200100200102020100000400000,
|
||||
03434343,
|
||||
000000000000000000202020200000000200000000200000,//40
|
||||
|
||||
#GOGOSTART
|
||||
1022102010201120,
|
||||
1020112010221120,
|
||||
1022102010201120,
|
||||
1020112010221120,
|
||||
1022102110221020,
|
||||
102020100000100000200200100200100200100000200000,
|
||||
100000202020100000200000100200100200100100200000,
|
||||
0030004000221222,//48
|
||||
|
||||
#GOGOEND
|
||||
1000202210021020,
|
||||
102020200000100000200200100200100200000200100000,
|
||||
200000102020100000200000100200100200200000100000,
|
||||
0010201000121122,//52
|
||||
|
||||
#GOGOSTART
|
||||
1020112010201120,
|
||||
1022102011221020,
|
||||
1221201011212020,
|
||||
1221201011212222,//56
|
||||
|
||||
#GOGOEND
|
||||
1010202220201010,
|
||||
2022202012112012,
|
||||
1010202220201010,
|
||||
2022201122112011,
|
||||
1010202220201010,
|
||||
2022202012112012,
|
||||
1010202220201010,
|
||||
2020102222112221,
|
||||
101211101221,
|
||||
211221211221,
|
||||
101221121221,
|
||||
111020202010111020202010,
|
||||
3003002221103030,
|
||||
0030120212221222,
|
||||
1022211122211111,
|
||||
100100100100100100100100101010101010101010101010,
|
||||
1000002210101040,
|
||||
0040004000112010,//74
|
||||
|
||||
#GOGOSTART
|
||||
1022102010201120,
|
||||
1020112010221120,
|
||||
1022102110221020,
|
||||
102020100100200200200200100100200200200200100100,
|
||||
100000202020100000200000100200100200100100200000,
|
||||
0030004000221222,//80
|
||||
|
||||
#GOGOEND
|
||||
1000202210021020,
|
||||
102020200000100000200200100200100200000200100000,
|
||||
200000102020100000200000100200100200200000100000,
|
||||
0010201000121122,//84
|
||||
|
||||
#GOGOSTART
|
||||
1020112010201120,
|
||||
1022102011221020,
|
||||
100200200100200000100000101010200100200000200000,
|
||||
100200200100200000100000101010200100200200200200,//88
|
||||
|
||||
#GOGOEND
|
||||
1010202220201010,
|
||||
2022202012112012,
|
||||
1010202220201010,
|
||||
2022201122112011,
|
||||
1011202220201011,
|
||||
2022202012112012,
|
||||
1011202220201011,
|
||||
2020102222112221,//96
|
||||
|
||||
#GOGOSTART
|
||||
1022122110211022,
|
||||
1221102212112012,
|
||||
1022122110211022,
|
||||
1221102112112211,
|
||||
1022122110211022,
|
||||
1221102212112010,
|
||||
111111111111111111200200,
|
||||
1212122022121211,
|
||||
100222200300000000000000,//106
|
||||
|
||||
#GOGOEND
|
||||
|
||||
|
||||
#END
|
||||
|
||||
|
||||
COURSE:Hard
|
||||
LEVEL:8
|
||||
BALLOON:21,22
|
||||
SCOREINIT:320
|
||||
SCOREDIFF:90
|
||||
|
||||
#START
|
||||
11000000,
|
||||
,
|
||||
11000000,
|
||||
,
|
||||
11010011,
|
||||
01001010,
|
||||
11111111,
|
||||
00000340,//8
|
||||
|
||||
#GOGOSTART
|
||||
11222211,
|
||||
22221120,
|
||||
11222211,
|
||||
22221220,
|
||||
11222211,
|
||||
22221120,
|
||||
11222211,
|
||||
200000200000100000200000500000000000000008000000,
|
||||
11222211,
|
||||
22221120,
|
||||
11222211,
|
||||
22221220,
|
||||
11222211,
|
||||
22221122,
|
||||
7,
|
||||
0008,//24
|
||||
|
||||
#GOGOEND
|
||||
1001001000001010,
|
||||
0010010010001110,
|
||||
0010100010010010,
|
||||
0010010010004000,
|
||||
102022202022,
|
||||
202022202200,
|
||||
1000100100101000,
|
||||
000000100000000100000000500000000000000008000000,
|
||||
10101212,
|
||||
10121211,
|
||||
10101212,
|
||||
1000102010201011,
|
||||
10210120,
|
||||
1010201011102010,
|
||||
03434343,
|
||||
0000002220020020,//40
|
||||
|
||||
#GOGOSTART
|
||||
10210121,
|
||||
0010201011102010,
|
||||
10210121,
|
||||
0010201011102010,
|
||||
01212121,
|
||||
2220201020102010,
|
||||
10210123,
|
||||
0030004000222220,//48
|
||||
|
||||
#GOGOEND
|
||||
1000002220020020,
|
||||
1000202010020020,
|
||||
1022202010102030,
|
||||
03040122,//52
|
||||
|
||||
#GOGOSTART
|
||||
12121212,
|
||||
12121212,
|
||||
1002002010020020,
|
||||
1002002020020020,//56
|
||||
|
||||
#GOGOEND
|
||||
11222211,
|
||||
22221120,
|
||||
11222211,
|
||||
22221220,
|
||||
11222211,
|
||||
22221120,
|
||||
11222211,
|
||||
200000200000100000500000000000000000000008000000,
|
||||
101200101200,
|
||||
102100102100,
|
||||
101202101202,
|
||||
102100102100,
|
||||
3003002222203030,
|
||||
000000300000100200000000500000000000000008000000,
|
||||
7,
|
||||
0008,
|
||||
1000002220101040,
|
||||
0040004000112000,//74
|
||||
|
||||
#GOGOSTART
|
||||
10210121,
|
||||
0010201011102010,
|
||||
01212121,
|
||||
2220202022202020,
|
||||
10210123,
|
||||
0030004000222220,//80
|
||||
|
||||
#GOGOEND
|
||||
1000002220020020,
|
||||
1000202010020020,
|
||||
1022202010102030,
|
||||
0030004000222220,//84
|
||||
|
||||
#GOGOSTART
|
||||
12121212,
|
||||
12121212,
|
||||
1002002010020020,
|
||||
1002002020020020,//88
|
||||
|
||||
#GOGOEND
|
||||
11222211,
|
||||
22221120,
|
||||
11222211,
|
||||
22221220,
|
||||
11222211,
|
||||
22221120,
|
||||
11222211,
|
||||
200000200000100000500000000000000000000008000000,//96
|
||||
|
||||
#GOGOSTART
|
||||
11222211,
|
||||
22221121,
|
||||
11222211,
|
||||
22221221,
|
||||
11222211,
|
||||
22221121,
|
||||
11222211,
|
||||
2020102022202220,
|
||||
10230000,//106
|
||||
|
||||
#GOGOEND
|
||||
,
|
||||
#END
|
||||
|
||||
COURSE:Normal
|
||||
LEVEL:7
|
||||
BALLOON:14,14,16
|
||||
|
||||
#START
|
||||
11000000,
|
||||
,
|
||||
11000000,
|
||||
,
|
||||
11010011,
|
||||
01001010,
|
||||
500000000000000000000000000000000000000000000008,
|
||||
00000120,//8
|
||||
|
||||
#GOGOSTART
|
||||
11101011,
|
||||
1122,
|
||||
11101011,
|
||||
1122,
|
||||
11101011,
|
||||
1122,
|
||||
11101011,
|
||||
10102220,
|
||||
11101011,
|
||||
1122,
|
||||
11101011,
|
||||
1122,
|
||||
11101011,
|
||||
1122,
|
||||
7,
|
||||
0008,//24
|
||||
|
||||
#GOGOEND
|
||||
11,
|
||||
1012,
|
||||
11,
|
||||
1014,
|
||||
11,
|
||||
1012,
|
||||
7,
|
||||
0008,
|
||||
10101110,
|
||||
10111110,
|
||||
10101110,
|
||||
10111110,
|
||||
20220220,
|
||||
10201111,
|
||||
01111111,
|
||||
,//40
|
||||
|
||||
#GOGOSTART
|
||||
10110101,
|
||||
01011110,
|
||||
20220202,
|
||||
02022222,
|
||||
05000000,
|
||||
000000000000000000000000000000000008000000000000,
|
||||
20220113,
|
||||
03040000,//48
|
||||
|
||||
#GOGOEND
|
||||
12,
|
||||
1122,
|
||||
10102003,
|
||||
03040000,//52
|
||||
|
||||
#GOGOSTART
|
||||
10201120,
|
||||
10201120,
|
||||
500000000000000000000000000000000008000000000000,
|
||||
600000000000000000000000000000000008000000000000,//56
|
||||
|
||||
#GOGOEND
|
||||
11202011,
|
||||
2211,
|
||||
11202011,
|
||||
2222,
|
||||
11202011,
|
||||
2211,
|
||||
11202011,
|
||||
200000000000200000500000000000000008000000000000,
|
||||
1212,
|
||||
1111,
|
||||
2222,
|
||||
1212,
|
||||
3003000000003030,
|
||||
000000500000000000000000000000000008000000000000,
|
||||
7,
|
||||
,
|
||||
80000003,
|
||||
03030120,//74
|
||||
|
||||
#GOGOSTART
|
||||
10110102,
|
||||
02022222,
|
||||
05000000,
|
||||
000000000000000000000000000000000008000000000000,
|
||||
20220113,
|
||||
03040000,//80
|
||||
|
||||
#GOGOEND
|
||||
12,
|
||||
1122,
|
||||
10102003,
|
||||
03040000,//84
|
||||
|
||||
#GOGOSTART
|
||||
10201120,
|
||||
10201120,
|
||||
500000000000000000000000000000000008000000000000,
|
||||
600000000000000000000000000000000008000000000000,//88
|
||||
|
||||
#GOGOEND
|
||||
11202011,
|
||||
2211,
|
||||
11202011,
|
||||
2222,
|
||||
11202011,
|
||||
2211,
|
||||
11202011,
|
||||
200000000000200000500000000000000008000000000000,//96
|
||||
|
||||
#GOGOSTART
|
||||
11202011,
|
||||
20201110,
|
||||
11202011,
|
||||
20202220,
|
||||
11202011,
|
||||
20201110,
|
||||
11202011,
|
||||
20202220,
|
||||
10030000,//106
|
||||
|
||||
#GOGOEND
|
||||
,
|
||||
#END
|
||||
|
||||
COURSE:Easy
|
||||
LEVEL:5
|
||||
BALLOON:11,11,20,13
|
||||
|
||||
#START
|
||||
3,
|
||||
,
|
||||
3,
|
||||
,
|
||||
3003,
|
||||
0033,
|
||||
600000000000000000000000000000000000000000000008,
|
||||
,//8
|
||||
|
||||
#GOGOSTART
|
||||
1101,
|
||||
1011,
|
||||
1101,
|
||||
1022,
|
||||
1101,
|
||||
1011,
|
||||
1101,
|
||||
1022,
|
||||
1101,
|
||||
1011,
|
||||
1101,
|
||||
1022,
|
||||
1101,
|
||||
1011,
|
||||
7,
|
||||
0008,//24
|
||||
|
||||
#GOGOEND
|
||||
1,
|
||||
12,
|
||||
1,
|
||||
12,
|
||||
11,
|
||||
12,
|
||||
7,
|
||||
0008,
|
||||
1110,
|
||||
1110,
|
||||
1110,
|
||||
1110,
|
||||
9,
|
||||
,
|
||||
0900,
|
||||
8,//40
|
||||
|
||||
#GOGOSTART
|
||||
10110101,
|
||||
01011000,
|
||||
10110101,
|
||||
01011000,
|
||||
05000000,
|
||||
000000000000000000000000000008000000000000000000,
|
||||
10110103,
|
||||
03030000,//48
|
||||
|
||||
#GOGOEND
|
||||
12,
|
||||
12,
|
||||
10002003,
|
||||
03030000,//52
|
||||
|
||||
#GOGOSTART
|
||||
1111,
|
||||
1111,
|
||||
500000000000000000000000000000000008000000000000,
|
||||
600000000000000000000000000008000000000000000000,//56
|
||||
|
||||
#GOGOEND
|
||||
1101,
|
||||
1011,
|
||||
1101,
|
||||
1022,
|
||||
1101,
|
||||
1011,
|
||||
1101,
|
||||
500000000000000000000000000008000000000000000000,
|
||||
11,
|
||||
1111,
|
||||
22,
|
||||
2222,
|
||||
3003000000003000,
|
||||
000000500000000000000000000000000008000000000000,
|
||||
7,
|
||||
,
|
||||
80000003,
|
||||
03030000,//74
|
||||
|
||||
#GOGOSTART
|
||||
10110101,
|
||||
01011000,
|
||||
05000000,
|
||||
000000000000000000000000000008000000000000000000,
|
||||
10110103,
|
||||
03030000,//80
|
||||
|
||||
#GOGOEND
|
||||
12,
|
||||
12,
|
||||
10002003,
|
||||
03030000,//84
|
||||
|
||||
#GOGOSTART
|
||||
1111,
|
||||
1111,
|
||||
500000000000000000000000000000000008000000000000,
|
||||
600000000000000000000000000008000000000000000000,//88
|
||||
|
||||
#GOGOEND
|
||||
1101,
|
||||
1011,
|
||||
1101,
|
||||
1022,
|
||||
1101,
|
||||
1011,
|
||||
1101,
|
||||
500000000000000000000000000008000000000000000000,//96
|
||||
|
||||
#GOGOSTART
|
||||
1111,
|
||||
1122,
|
||||
1111,
|
||||
1122,
|
||||
1111,
|
||||
1122,
|
||||
1111,
|
||||
500000000000000000000000000008000000000000000000,
|
||||
10030000,//106
|
||||
|
||||
#GOGOEND
|
||||
,
|
||||
#END
|
||||
Reference in New Issue
Block a user