tja
This commit is contained in:
487
tja/875.tja
Normal file
487
tja/875.tja
Normal file
@@ -0,0 +1,487 @@
|
||||
//TJADB Project
|
||||
TITLE:Grave
|
||||
TITLEJA:グラーヴェ
|
||||
SUBTITLE:--niki feat. Hatsune Miku/#C.O.M.P.A.S.S.
|
||||
SUBTITLEJA:niki feat.初音ミク 「戦闘摂理解析システム#コンパス」より
|
||||
BPM:185
|
||||
WAVE:Grave.ogg
|
||||
OFFSET:-1.412
|
||||
DEMOSTART:45.357
|
||||
|
||||
COURSE:Oni
|
||||
LEVEL:8
|
||||
BALLOON:32
|
||||
SCOREINIT:390
|
||||
SCOREDIFF:110
|
||||
|
||||
|
||||
#START
|
||||
|
||||
|
||||
,
|
||||
,
|
||||
1020102210102010,
|
||||
01012222,
|
||||
1020102210102010,
|
||||
0010002000200022,
|
||||
1020102210102010,
|
||||
01012222,
|
||||
1020102210102030,
|
||||
0022,//10
|
||||
|
||||
#GOGOSTART
|
||||
1010201010112010,
|
||||
0010201110102000,
|
||||
1010201010112010,
|
||||
01211120,
|
||||
1010201010112010,
|
||||
0010201110102000,
|
||||
1010201120112010,
|
||||
0010100022222022,//18
|
||||
|
||||
#GOGOEND
|
||||
11010121,
|
||||
01201120,
|
||||
11010121,
|
||||
01201120,
|
||||
11212112,
|
||||
12212120,
|
||||
11210121,
|
||||
02221120,
|
||||
30300023,
|
||||
03301121,
|
||||
11211011,
|
||||
0011101020102020,
|
||||
30300023,
|
||||
03301121,
|
||||
11201122,
|
||||
1222102210100000,//34
|
||||
|
||||
#GOGOSTART
|
||||
1110201011102010,
|
||||
0011201110102010,
|
||||
0010201110102010,
|
||||
0011101010111020,
|
||||
1000201110102020,
|
||||
0010201110102012,
|
||||
1010202210102010,
|
||||
0022202220101010,
|
||||
30112013,
|
||||
0010101120202020,
|
||||
30112013,
|
||||
0020201120201020,
|
||||
600000000000000000000000000000000000000008000000,
|
||||
01012020,
|
||||
20021020,
|
||||
10202120,//50
|
||||
|
||||
#GOGOEND
|
||||
10102222,
|
||||
10210210,
|
||||
10102222,
|
||||
01010220,
|
||||
10101222,
|
||||
10110210,
|
||||
10101222,
|
||||
1020102012222222,
|
||||
11211222,
|
||||
1010201022201020,
|
||||
11211222,
|
||||
1022102010221020,
|
||||
11211222,
|
||||
1010201022201020,
|
||||
11211222,
|
||||
1022102010221000,
|
||||
11111111,
|
||||
11111111,
|
||||
11211011,
|
||||
01112120,
|
||||
3323,
|
||||
0030300010112000,
|
||||
1000101010102022,
|
||||
#MEASURE 8/4
|
||||
12221222111100000000000020000000,//74
|
||||
|
||||
#MEASURE 4/4
|
||||
#GOGOSTART
|
||||
1001001020102030,
|
||||
0010200022222222,
|
||||
1010201110102010,
|
||||
0011101010111020,
|
||||
1000201110102020,
|
||||
0010201011102012,
|
||||
1010202210102010,
|
||||
0022202220101222,
|
||||
1000201120112010,
|
||||
0011201120112010,
|
||||
1000201120112010,
|
||||
0011201120112220,
|
||||
31012011,
|
||||
0010001120101110,
|
||||
31012011,
|
||||
0010001120102000,//90
|
||||
|
||||
#GOGOEND
|
||||
7,
|
||||
,
|
||||
8,
|
||||
|
||||
|
||||
#END
|
||||
|
||||
|
||||
COURSE:Hard
|
||||
LEVEL:4
|
||||
BALLOON:24
|
||||
SCOREINIT:440
|
||||
SCOREDIFF:110
|
||||
|
||||
#START
|
||||
,
|
||||
,
|
||||
10101101,
|
||||
01002220,
|
||||
10101101,
|
||||
01020202,
|
||||
10101101,
|
||||
01002220,
|
||||
10101103,
|
||||
0022,//10
|
||||
|
||||
#GOGOSTART
|
||||
11101001,
|
||||
01101020,
|
||||
11101001,
|
||||
01102020,
|
||||
11101001,
|
||||
01101020,
|
||||
11202001,
|
||||
01102220,//18
|
||||
|
||||
#GOGOEND
|
||||
11010102,
|
||||
02101100,
|
||||
11010102,
|
||||
01101120,
|
||||
11101002,
|
||||
02201020,
|
||||
11110102,
|
||||
02201120,
|
||||
30300003,
|
||||
03301121,
|
||||
10211011,
|
||||
01012020,
|
||||
30300003,
|
||||
03301121,
|
||||
10201122,
|
||||
10101100,//34
|
||||
|
||||
#GOGOSTART
|
||||
11102221,
|
||||
01201111,
|
||||
01201111,
|
||||
01210120,
|
||||
10211021,
|
||||
01210121,
|
||||
10110205,
|
||||
000000000000000000000008000000000000000000000000,
|
||||
30112013,
|
||||
00102022,
|
||||
30112013,
|
||||
02210210,
|
||||
600000000000000000000000000000000000000008000000,
|
||||
0002,
|
||||
20020020,
|
||||
00202120,//50
|
||||
|
||||
#GOGOEND
|
||||
10102222,
|
||||
10210210,
|
||||
10102222,
|
||||
01010220,
|
||||
10102222,
|
||||
10210210,
|
||||
10102222,
|
||||
12020220,
|
||||
10102222,
|
||||
10210210,
|
||||
10102222,
|
||||
12020220,
|
||||
10102222,
|
||||
10210210,
|
||||
10102222,
|
||||
12020210,
|
||||
1111,
|
||||
10101110,
|
||||
10211011,
|
||||
01012020,
|
||||
3303,
|
||||
03301020,
|
||||
10111120,
|
||||
#MEASURE 8/4
|
||||
11100020,//74
|
||||
|
||||
#MEASURE 4/4
|
||||
#GOGOSTART
|
||||
10102203,
|
||||
0010200020222000,
|
||||
11201111,
|
||||
01210120,
|
||||
10211021,
|
||||
01210121,
|
||||
10110205,
|
||||
000000000000000000000008000000000000000000000000,
|
||||
10212121,
|
||||
01212120,
|
||||
10212121,
|
||||
01212120,
|
||||
30012011,
|
||||
01012010,
|
||||
30012011,
|
||||
01012010,//90
|
||||
|
||||
#GOGOEND
|
||||
7,
|
||||
,
|
||||
8,
|
||||
,
|
||||
,
|
||||
,
|
||||
,
|
||||
#END
|
||||
|
||||
COURSE:Normal
|
||||
LEVEL:2
|
||||
BALLOON:18
|
||||
|
||||
#START
|
||||
,
|
||||
,
|
||||
11,
|
||||
1,
|
||||
11,
|
||||
1,
|
||||
11,
|
||||
1,
|
||||
11,
|
||||
02,//10
|
||||
|
||||
#GOGOSTART
|
||||
11,
|
||||
1110,
|
||||
11,
|
||||
1110,
|
||||
11,
|
||||
1110,
|
||||
10001005,
|
||||
000000000000000000000008000000000000000000000000,//18
|
||||
|
||||
#GOGOEND
|
||||
1,
|
||||
1,
|
||||
11,
|
||||
1,
|
||||
12,
|
||||
12,
|
||||
11,
|
||||
1,
|
||||
600000000000000000000000000000000000000008000000,
|
||||
,
|
||||
11,
|
||||
1,
|
||||
600000000000000000000000000000000000000008000000,
|
||||
,
|
||||
11,
|
||||
1110,//34
|
||||
|
||||
#GOGOSTART
|
||||
1110,
|
||||
11,
|
||||
1110,
|
||||
11,
|
||||
12,
|
||||
22,
|
||||
10101005,
|
||||
000000000000000000000008000000000000000000000000,
|
||||
32,
|
||||
32,
|
||||
32,
|
||||
32,
|
||||
600000000000000000000000000000000000000008000000,
|
||||
0002,
|
||||
20020020,
|
||||
0202,//50
|
||||
|
||||
#GOGOEND
|
||||
11,
|
||||
1,
|
||||
11,
|
||||
2,
|
||||
11,
|
||||
1,
|
||||
11,
|
||||
2,
|
||||
1110,
|
||||
11,
|
||||
1110,
|
||||
22,
|
||||
1110,
|
||||
11,
|
||||
1110,
|
||||
2,
|
||||
1110,
|
||||
11,
|
||||
1110,
|
||||
1,
|
||||
600000000000000000000000000000000000000008000000,
|
||||
,
|
||||
11,
|
||||
#MEASURE 8/4
|
||||
11100000,//74
|
||||
|
||||
#MEASURE 4/4
|
||||
#GOGOSTART
|
||||
10101003,
|
||||
,
|
||||
1110,
|
||||
11,
|
||||
11,
|
||||
22,
|
||||
10101005,
|
||||
000000000000000000000008000000000000000000000000,
|
||||
1110,
|
||||
1110,
|
||||
1110,
|
||||
1110,
|
||||
32,
|
||||
32,
|
||||
32,
|
||||
32,//90
|
||||
|
||||
#GOGOEND
|
||||
7,
|
||||
,
|
||||
8,
|
||||
,
|
||||
,
|
||||
,
|
||||
,
|
||||
#END
|
||||
|
||||
COURSE:Easy
|
||||
LEVEL:2
|
||||
BALLOON:14
|
||||
|
||||
#START
|
||||
,
|
||||
,
|
||||
1,
|
||||
1,
|
||||
1,
|
||||
,
|
||||
1,
|
||||
1,
|
||||
1,
|
||||
02,//10
|
||||
|
||||
#GOGOSTART
|
||||
1,
|
||||
11,
|
||||
1,
|
||||
11,
|
||||
1,
|
||||
11,
|
||||
10000005,
|
||||
000000000000000000000008000000000000000000000000,//18
|
||||
|
||||
#GOGOEND
|
||||
1,
|
||||
1,
|
||||
1,
|
||||
,
|
||||
1,
|
||||
1,
|
||||
1,
|
||||
,
|
||||
600000000000000000000000000000000000000008000000,
|
||||
,
|
||||
1,
|
||||
1,
|
||||
600000000000000000000000000000000000000008000000,
|
||||
,
|
||||
1,
|
||||
1,//34
|
||||
|
||||
#GOGOSTART
|
||||
11,
|
||||
1,
|
||||
11,
|
||||
1,
|
||||
11,
|
||||
1,
|
||||
11,
|
||||
1,
|
||||
3,
|
||||
3,
|
||||
3,
|
||||
3,
|
||||
600000000000000000000000000000000000000008000000,
|
||||
,
|
||||
2,
|
||||
2,//50
|
||||
|
||||
#GOGOEND
|
||||
1,
|
||||
1,
|
||||
1,
|
||||
2,
|
||||
1,
|
||||
1,
|
||||
1,
|
||||
2,
|
||||
11,
|
||||
1,
|
||||
11,
|
||||
2,
|
||||
11,
|
||||
1,
|
||||
11,
|
||||
2,
|
||||
11,
|
||||
1,
|
||||
1,
|
||||
1,
|
||||
600000000000000000000000000000000000000008000000,
|
||||
,
|
||||
1,
|
||||
#MEASURE 8/4
|
||||
1,//74
|
||||
|
||||
#MEASURE 4/4
|
||||
#GOGOSTART
|
||||
11,
|
||||
,
|
||||
11,
|
||||
1,
|
||||
11,
|
||||
1,
|
||||
11,
|
||||
1,
|
||||
11,
|
||||
11,
|
||||
11,
|
||||
11,
|
||||
3,
|
||||
3,
|
||||
3,
|
||||
3,//90
|
||||
|
||||
#GOGOEND
|
||||
7,
|
||||
,
|
||||
8,
|
||||
,
|
||||
,
|
||||
,
|
||||
,
|
||||
#END
|
||||
Reference in New Issue
Block a user