This commit is contained in:
2026-03-04 23:59:27 +09:00
parent 6e0312f5b4
commit 4b4e2b8c98
1128 changed files with 668765 additions and 0 deletions

407
tja/882.tja Normal file
View File

@@ -0,0 +1,407 @@
//TJADB Project
TITLE:Otome Kaibou
TITLEJA:乙女解剖
SUBTITLE:--DECO*27 feat. Hatsune Miku
SUBTITLEJA:DECO*27 feat.初音ミク
BPM:134
WAVE:Otome Kaibou.ogg
OFFSET:-1.919
DEMOSTART:83.616
COURSE:Edit
LEVEL:8
SCOREINIT:550
SCOREDIFF:143
#START
1020100210102020,
1020102120222020,
1020100210102020,
1020102220222020,
1020100210102020,
1020002010202210,
0022200010103000,
#GOGOSTART
1001201120120120,
1021202022102010,
1001201120120120,
1022101020202222,
1001201120120120,
1021202020221020,
1002102210210210,
1210101100212210,
#GOGOEND
10221222,
1020102010222020,
10221222,
12121020,
111222122122,
1111101022222020,
1022101012102010,
33020220,
1000202011122022,
1012102010102212,
1011201222120120,
1020221212102220,
222111211211,
1212101021212020,
1020102011102020,
32020220,
300212112122,
100211211202,
300222111212,
100000000000100000001000200000000000000000100100,
1002102210121010,
1221221221221221,
000300300300300222200200,
#GOGOSTART
1020100210102022,
1020102120222020,
1020100210102020,
1020122012202022,
1020100210102022,
1020102210202220,
1020102210106000,
000000000008000000000000000000202020200000200000,
1020100210102020,
1020102120222020,
1020100210102020,
1020122012212122,
1020100210102020,
1020102210202220,
100200200000100111100000,
1001201120120120,
1021202022102010,
1001201120120120,
1022101021122112,
1010222012102020,
2010221210102122,
100111200000300300300300,
#GOGOEND
#END
COURSE:Oni
LEVEL:6
BALLOON:12,16
SCOREINIT:790
SCOREDIFF:220
#START
12101022,
12022020,
12101022,
12022122,
12101022,
12020202,
12201130,
#GOGOSTART
1000201110010010,
12122120,
1000201110010010,
12102220,
1000201110010010,
12102120,
1000201110020020,
7008,
#GOGOEND
10201022,
12121020,
10201022,
12121020,
111100222200,
11112222,
10201111,
30020220,
10201022,
12121222,
10201022,
12121020,
111100222200,
11112222,
12121111,
30020200,
500000000000000000000000000000000000000008000000,
000202202202,
500000000000000000000000000000000000000008000000,
100202200000,
10101111,
70000008,
01113000,
#GOGOSTART
1020101110102020,
1020002020222000,
1020101110102020,
12022222,
1020101110102020,
12020022,
1020101110206000,
000000000008000000000000000000200000200000200000,
1020101110102020,
1020002020222000,
1020101110102020,
12022222,
1020101110102020,
12020202,
12201110,
5,
000000000000000000000000000008000000000000000000,
1000201110010010,
12122121,
11211121,
22122212,
10203333,
#GOGOEND
#END
COURSE:Hard
LEVEL:4
BALLOON:10,16
SCOREINIT:750
SCOREDIFF:213
#START
12101022,
12022020,
12101022,
12022020,
12101022,
12020202,
12201130,//7
#GOGOSTART
1000200010010010,
12102120,
1000200010010010,
12102220,
1000200010010010,
12102120,
1000200010010010,
7008,//15
#GOGOEND
10201022,
10121020,
10201022,
10121020,
1122,
11102220,
10201111,
30020200,
10201022,
10121020,
10201022,
10121020,
1122,
11102220,
12101110,
30020200,
500000000000000000000000000000000000000008000000,
0222,
500000000000000000000000000000000000000008000000,
0220,
10101111,
70000008,
01113000,//38
#GOGOSTART
12101022,
12022020,
12101022,
12022020,
12101022,
12020022,
12101160,
000000000008000000000000000000200000200000200000,
12101022,
12022020,
12101022,
12022220,
12101022,
12020202,
12201110,
5,
000000000000000000000000000008000000000000000000,
1000200010010010,
12102120,
10201110,
20102220,
10203333,//60
#GOGOEND
,
#END
COURSE:Normal
LEVEL:3
BALLOON:7,12
#START
10101022,
1022,
10101022,
1022,
10101022,
12020202,
3022,//7
#GOGOSTART
1000000010010010,
1110,
1000000010010010,
1120,
1000000010010010,
1110,
1210,
7008,//15
#GOGOEND
11,
1011,
11,
1011,
1022,
1022,
1011,
3,
12,
1011,
12,
1011,
1022,
1022,
1011,
3,
500000000000000000000000000000000000000008000000,
0220,
500000000000000000000000000000000000000008000000,
0220,
1111,
7,
8,//38
#GOGOSTART
10101022,
1022,
10101022,
1022,
10201022,
12020000,
1116,
000000000008000000000000000000000000100000000000,
10101022,
1022,
10101022,
1022,
10201022,
12020202,
1011,
5,
000000000000000000000000000008000000000000000000,
1000000010010010,
1120,
1212,
1212,
1133,//60
#GOGOEND
,
#END
COURSE:Easy
LEVEL:2
BALLOON:5,9
#START
11,
1,
11,
1,
11,
1,
1,//7
#GOGOSTART
11,
1,
11,
1110,
11,
1,
11,
7008,//15
#GOGOEND
1,
11,
1,
11,
12,
12,
1,
3,
1,
11,
1,
11,
12,
12,
1,
3,
50000008,
02,
50000008,
02,
11,
7,
8,//38
#GOGOSTART
1110,
12,
1110,
12,
1011,
1011,
1016,
0800,
1110,
12,
1110,
12,
1011,
1011,
11,
5,
00000800,
11,
1,
11,
22,
1033,//60
#GOGOEND
,
#END