This commit is contained in:
2026-03-04 23:59:27 +09:00
parent 6e0312f5b4
commit 4b4e2b8c98
1128 changed files with 668765 additions and 0 deletions

440
tja/887.tja Normal file
View File

@@ -0,0 +1,440 @@
//TJADB Project
TITLE:Namahage no Uta
TITLEJA:ナマハゲノウタ
SUBTITLE:--Yusuke Takahama feat. DAIKI
SUBTITLEJA:feat.DAIKI
BPM:176
WAVE:Namahage no Uta.ogg
OFFSET:-1.522
DEMOSTART:52.828
COURSE:Oni
LEVEL:9
BALLOON:4
SCOREINIT:420
SCOREDIFF:108
#START
2211112211112222,
1122112222112211,
2121121121121122,
2222222211111111,
11000000,
00002120,
1010201210102000,
1010201011102212,
1010201010102011,
1111200022222000,
11211121,
1010201010102220,
30030070,
8,
1000100010010011,
0010100010110011,
1000100010010011,
0010100010110011,
1000100010010011,
0010100010110011,
1000100010110011,
2010100010002222,
1010201012102011,
1010201212112012,
1010201212102012,
1010201120101010,
0011201120112011,
2011201122112210,
1010201120112010,
1012121222221111,
1010001120100010,
1011101120112011,
1010111120112011,
2211101000221222,
1010201110102012,
1010201110102010,
2011201120200020,
0030303000112010,
#GOGOSTART
0010201110111010,
0010201111112010,
0010201010111010,
0010201022111010,
0010201110112010,
0010201111111010,
0010201110102010,
0010221111111020,
0010201111112010,
0010201110112010,
0010201110202010,
0010221120201010,
0010101120111010,
0010201120111010,
0111,
1000102211111010,
#GOGOEND
0010201111112010,
0010201120101010,
0000221122111110,
1010221022101010,
0000201111112010,
01212111,
0022111000221110,
0022203000300000,
2000200020202011,
2020211121111010,
0101,
0000100022101010,
#GOGOSTART
0010200011112010,
0010201120101010,
0011201120111010,
0011201120111010,
0011221111111010,
01111112,
0010201010112010,
0011201020111110,
0010200120112011,
2011201120111010,
0010221122112010,
0011221111111110,
0111,
2020120020222210,
#GOGOEND
0010201211112010,
1010201211102010,
1011201210102010,
1010201010102211,
1010201212102012,
1211100022222000,
30030060,
000000000000000000000000000000000000000000000008,
#END
COURSE:Hard
LEVEL:7
BALLOON:45,4
SCOREINIT:430
SCOREDIFF:100
#START
9,
,
,
,
8,
00002120,
1010201110102000,
1010201011102000,
11211120,
1110200022202000,
11211121,
1010201010102220,
30030070,
8,
1000100010010010,
0010100010010010,
1000100010010010,
0010100010010011,
1000100010010010,
0010100010010011,
1000100010010010,
0010100010002220,
11210121,
01211120,
11210121,
0010202220101010,
0022201020102000,
2022201022202220,
1010202220112010,
000000500000000000000000000000000008000000000000,
10012000,
1011101020002000,
1010111020002000,
2220201000222000,
11210120,
11210120,
21212202,
03330001,//38
#GOGOSTART
0010201010111010,
0010201110102010,
0010201010111010,
01212111,
0010201110102010,
0010201011102010,
0010201110102010,
0010222010100010,
0010201011102010,
0010201110102010,
0010201110202010,
0010222020201010,
0010201020222010,
0010201020111010,
0111,
1000102220202010,//54
#GOGOEND
0010201110102010,
0010202220101010,
0000222022201010,
0000222022201010,
0000222011101010,
01202111,
0022201000222010,
0022203000300000,
20202220,
2020200020111010,
0101,
00100011,//66
#GOGOSTART
0010200011102010,
01212111,
0022201020101010,
0022201020100010,
0010222010101010,
01111112,
01201121,
0010201020111010,
01212121,
2010201020111010,
0010222022202010,
0011101110101010,
0111,
2020020020222010,//80
#GOGOEND
0010201110102010,
1010201110102010,
1010201110102010,
1010201010102220,
1010201110102011,
1011100022202000,
30030060,
000000000000000000000000000000000000000000000008,
,
,
#END
COURSE:Normal
LEVEL:6
BALLOON:28,2
#START
9,
,
,
9,
8,
00002120,
11210120,
01201120,
11210120,
11202220,
11210120,
01201120,
30030070,
8,
1000100010010010,
01101000,
1000100010010010,
01101000,
1000100010010010,
01101000,
1000100010010010,
01101000,
11210021,
01201120,
11210021,
01020111,
01102020,
21102020,
11210021,
000000500000000000000000000000000008000000000000,
10012000,
11012020,
01102020,
22010220,
11210020,
11210020,
20202202,
03330001,//38
#GOGOSTART
01211001,
01211021,
01210101,
01212101,
01200121,
01200101,
01200121,
01020101,
01211021,
01211021,
01210201,
01202201,
01200221,
01010111,
0111,
10102201,//54
#GOGOEND
01201121,
01202111,
00222201,
00222201,
00221011,
01202111,
02210221,
02230300,
20202220,
22202111,
0101,
00100011,//66
#GOGOSTART
01201121,
01210101,
02202111,
02202101,
01201111,
01010112,
01201121,
01202111,
01210121,
01210101,
01202221,
01101111,
0111,
2020020020202010,//80
#GOGOEND
01210120,
01201120,
11210120,
11201120,
11210120,
01102220,
30030060,
000000000000000000000000000000000000000000000008,
,
,
#END
COURSE:Easy
LEVEL:4
BALLOON:22
#START
9,
,
,
9,
8,
,
10010010,
01001000,
10010010,
,
10010010,
01001000,
30030030,
,
1110,
0110,
1110,
0110,
1110,
0110,
1110,
500000000000000000000000000008000000000000000000,
10010000,
1110,
10010001,
01010001,
0111,
1111,
10010001,
000000500000000000000000000000000008000000000000,
10010000,
10010000,
01001010,
10010000,
10010000,
10010000,
1011,
03030001,//38
#GOGOSTART
00101001,
00101001,
01010101,
01010101,
00000101,
00000101,
00000101,
01010001,
00101001,
00101001,
01010101,
01010101,
00000101,
00001005,
,
000000000000000000000000000000000000000008000000,//54
#GOGOEND
00101001,
01001001,
00101001,
01010001,
00101001,
01001003,
00030003,
00030600,
,
000000000000000000000008000000000000000000000000,
0101,
00100001,//66
#GOGOSTART
01010101,
01010101,
00000101,
00000101,
00000101,
01010001,
00101001,
00101001,
01010101,
01010101,
00000101,
00001005,
,
000000000000000000000000000000000000000008000000,//80
#GOGOEND
00010010,
01001010,
10010010,
,
10010010,
01001010,
30030060,
000000000000000000000000000000000000000000000008,
,
,
#END