tja
This commit is contained in:
861
tja/892.tja
Normal file
861
tja/892.tja
Normal file
@@ -0,0 +1,861 @@
|
||||
//TJADB Project
|
||||
TITLE:Bakumatsu Ishintan
|
||||
TITLEJA:幕末維新譚
|
||||
SUBTITLE:--Daisuke Kurosawa × Masahiro “Godspeed” Aoki
|
||||
SUBTITLEJA:黒沢ダイスケ × Masahiro "Godspeed" Aoki
|
||||
BPM:260
|
||||
WAVE:Bakumatsu Ishintan.ogg
|
||||
OFFSET:-1.942
|
||||
DEMOSTART:49.942
|
||||
|
||||
COURSE:Oni
|
||||
LEVEL:10
|
||||
BALLOON:2,3,4,5,6,7,8,9,10,11,12,13,14,15
|
||||
SCOREINIT:330
|
||||
SCOREDIFF:63
|
||||
|
||||
|
||||
#START
|
||||
|
||||
|
||||
#MEASURE 4/4
|
||||
#GOGOSTART
|
||||
33,
|
||||
33,
|
||||
300122222200,
|
||||
101010700000000800400000,
|
||||
#GOGOEND
|
||||
|
||||
70810120,
|
||||
21111112,
|
||||
22111111,
|
||||
11107008,
|
||||
70008120,
|
||||
11202020,
|
||||
122222211111,
|
||||
111222222200,
|
||||
|
||||
70870870,
|
||||
0822,
|
||||
21111111,
|
||||
21111110,
|
||||
70087008,
|
||||
7008,
|
||||
122222221111,
|
||||
101010102020222020200000,
|
||||
|
||||
70000008,
|
||||
1000201011112000,
|
||||
11210120,
|
||||
211111111222,
|
||||
70000008,
|
||||
1000201011112000,
|
||||
122222222111,
|
||||
112220222200,
|
||||
|
||||
70000008,
|
||||
2010101111112020,
|
||||
22211111,
|
||||
100100100010202020202020,
|
||||
111111211111,
|
||||
111222222111,
|
||||
1000102000112000,
|
||||
70000008,
|
||||
|
||||
100100200100100200101020,
|
||||
11211211,
|
||||
201010200100100200100100,
|
||||
200200100200101010200100,
|
||||
40140140,
|
||||
1000400011112000,
|
||||
122222222111,
|
||||
101010202020200200200000,
|
||||
|
||||
100200200100200200102020,
|
||||
12212212,
|
||||
201020200100200200100200,
|
||||
200100100200101020100200,
|
||||
30230140,
|
||||
3000400011112000,
|
||||
222222111111,
|
||||
4,
|
||||
|
||||
#GOGOSTART
|
||||
1110201000102220,
|
||||
1110201000112020,
|
||||
100000000000200000100100100000100000200020002000,
|
||||
100000200200101010200200,
|
||||
10120120,
|
||||
1000101022112020,
|
||||
111222111211,
|
||||
222111222122,
|
||||
|
||||
1110201000102220,
|
||||
1110201000112020,
|
||||
100000000000200200100000000000100000200020002000,
|
||||
100100200200101010200200,
|
||||
12212211,
|
||||
12212211,
|
||||
122122111221,
|
||||
221112212211,
|
||||
|
||||
1000202011102220,
|
||||
1110222010101020,
|
||||
111222111222,
|
||||
111122221111,
|
||||
500000000000000000000000000000000000000008000000,
|
||||
2200003000003000,
|
||||
211111111222,
|
||||
222111111100,
|
||||
#GOGOEND
|
||||
|
||||
10101110,
|
||||
10111010,
|
||||
10111010,
|
||||
11011011,
|
||||
10101110,
|
||||
20121020,
|
||||
20121020,
|
||||
200000000000500000000000000000000000000008000000,
|
||||
|
||||
#GOGOSTART
|
||||
#MEASURE 5/4
|
||||
30
|
||||
#GOGOEND
|
||||
12001020,
|
||||
#GOGOSTART
|
||||
300000
|
||||
#GOGOEND
|
||||
100200000000202020200000,
|
||||
#GOGOSTART
|
||||
30
|
||||
#GOGOEND
|
||||
12112120,
|
||||
#GOGOSTART
|
||||
300200
|
||||
#GOGOEND
|
||||
000200200100202020100000,
|
||||
|
||||
#GOGOSTART
|
||||
3000
|
||||
#GOGOEND
|
||||
1022201022202000,
|
||||
#GOGOSTART
|
||||
300000000000
|
||||
#GOGOEND
|
||||
100000200200200000100000100020002000100000000000,
|
||||
#GOGOSTART
|
||||
3020
|
||||
#GOGOEND
|
||||
0020112011221000,
|
||||
#GOGOSTART
|
||||
300000100100
|
||||
#GOGOEND
|
||||
200000100100200000200000100010001000200020002000,
|
||||
|
||||
#MEASURE 4/4
|
||||
1000221000112000,
|
||||
111222111222,
|
||||
1000221000112000,
|
||||
1110200011102020,
|
||||
1000221000112000,
|
||||
1000221110102010,
|
||||
2022101120112020,
|
||||
1000201020222111,
|
||||
|
||||
1000221000112000,
|
||||
121222121111,
|
||||
2211102211104000,
|
||||
000100202020101010201010,
|
||||
11211211,
|
||||
200010001000200000200000100100200000200000100100,
|
||||
2020111020201110,
|
||||
221112211100,
|
||||
|
||||
#BPMCHANGE 325
|
||||
#MEASURE 5/4
|
||||
#SCROLL 0.8
|
||||
2222211111,
|
||||
2222211111,
|
||||
2211122111,
|
||||
2211122111,
|
||||
20202220201010111010,
|
||||
20202220201010111010,
|
||||
20201110102020111010,
|
||||
20201110102020110000,
|
||||
|
||||
#SCROLL 1
|
||||
#BPMCHANGE 260
|
||||
#MEASURE 4/4
|
||||
21112211,
|
||||
21221122,
|
||||
21211121,
|
||||
11221121,
|
||||
2000212121212000,
|
||||
2121212121212000,
|
||||
2211221120002000,
|
||||
222200600800,
|
||||
|
||||
#GOGOSTART
|
||||
300000200111,
|
||||
20020020,
|
||||
26,
|
||||
00084022,
|
||||
300000200111,
|
||||
2011112011112011,
|
||||
26,
|
||||
000000000800202020202020,
|
||||
|
||||
21112111,
|
||||
21112111,
|
||||
26,
|
||||
00084011,
|
||||
21112111,
|
||||
21112111,
|
||||
40404022,
|
||||
100100200000200000100100200000101010200000000000,
|
||||
|
||||
122222222111,
|
||||
100010001000200020002000200020002000200000200000,
|
||||
30040404,
|
||||
400000100100200200100100200000200000200000600008,
|
||||
|
||||
|
||||
#END
|
||||
|
||||
|
||||
COURSE:Hard
|
||||
LEVEL:8
|
||||
BALLOON:9,18
|
||||
SCOREINIT:310
|
||||
SCOREDIFF:80
|
||||
|
||||
#START
|
||||
#GOGOSTART
|
||||
33,
|
||||
33,
|
||||
300200222200,
|
||||
2303,
|
||||
#GOGOEND
|
||||
|
||||
30110111,
|
||||
1222,
|
||||
10110222,
|
||||
21111010,
|
||||
30110120,
|
||||
11202020,
|
||||
100100222200,
|
||||
111100222200,
|
||||
|
||||
30110111,
|
||||
1222,
|
||||
10110222,
|
||||
21111010,
|
||||
30110120,
|
||||
11202020,
|
||||
100100111100,
|
||||
111100222200,
|
||||
|
||||
10210120,
|
||||
10211110,
|
||||
10210120,
|
||||
100200111100,
|
||||
10210120,
|
||||
1000200011101000,
|
||||
100100111100,
|
||||
222200222200,
|
||||
|
||||
10210120,
|
||||
10211110,
|
||||
10210120,
|
||||
100200111100,
|
||||
100100111100,
|
||||
100100111100,
|
||||
10120120,
|
||||
70000008,
|
||||
|
||||
11111120,
|
||||
11111120,
|
||||
10111120,
|
||||
11112020,
|
||||
40140140,
|
||||
10401140,
|
||||
111100222200,
|
||||
101010100000200200200000,
|
||||
|
||||
11211120,
|
||||
11211120,
|
||||
10211120,
|
||||
11212020,
|
||||
30230230,
|
||||
2000300022202000,
|
||||
100100111100,
|
||||
4,
|
||||
|
||||
#GOGOSTART
|
||||
11120120,
|
||||
11120122,
|
||||
1000201000102020,
|
||||
10221122,
|
||||
10210120,
|
||||
10211120,
|
||||
111200111200,
|
||||
111200111200,
|
||||
|
||||
11120120,
|
||||
11120122,
|
||||
10210122,
|
||||
10221122,
|
||||
11112222,
|
||||
11112220,
|
||||
111100222200,
|
||||
111100222200,
|
||||
|
||||
10221122,
|
||||
11221120,
|
||||
112200112200,
|
||||
112200112200,
|
||||
500000000000000000000000000000000000000008000000,
|
||||
40030030,
|
||||
222200222200,
|
||||
111111111100,
|
||||
#GOGOEND
|
||||
|
||||
11,
|
||||
10010010,
|
||||
10010010,
|
||||
10010010,
|
||||
11,
|
||||
20010010,
|
||||
20010010,
|
||||
200000000000500000000000000000000000000008000000,
|
||||
|
||||
#MEASURE 5/4
|
||||
#GOGOSTART
|
||||
30
|
||||
#GOGOEND
|
||||
02002020,
|
||||
#GOGOSTART
|
||||
30
|
||||
#GOGOEND
|
||||
02002020,
|
||||
#GOGOSTART
|
||||
30
|
||||
#GOGOEND
|
||||
02002220,
|
||||
#GOGOSTART
|
||||
300000
|
||||
#GOGOEND
|
||||
000200000000202020200000,
|
||||
|
||||
#GOGOSTART
|
||||
30
|
||||
#GOGOEND
|
||||
22022220,
|
||||
#GOGOSTART
|
||||
300000
|
||||
#GOGOEND
|
||||
200200000200202020200000,
|
||||
#GOGOSTART
|
||||
3020
|
||||
#GOGOEND
|
||||
0022202020202000,
|
||||
#GOGOSTART
|
||||
300200
|
||||
#GOGOEND
|
||||
200100100200200000101010,
|
||||
|
||||
#MEASURE 4/4
|
||||
10210120,
|
||||
111200111200,
|
||||
10210120,
|
||||
11201122,
|
||||
10210120,
|
||||
10221121,
|
||||
21201021,
|
||||
20212222,
|
||||
|
||||
10210120,
|
||||
111200111200,
|
||||
11211230,
|
||||
000222200200,
|
||||
11211211,
|
||||
20202211,
|
||||
22112211,
|
||||
200222200000,
|
||||
|
||||
#BPMCHANGE 325
|
||||
#MEASURE 5/4
|
||||
#SCROLL 0.8
|
||||
2222011110,
|
||||
2222011110,
|
||||
2222011110,
|
||||
2222011110,
|
||||
2222011110,
|
||||
2222011110,
|
||||
2211022110,
|
||||
2211040000,
|
||||
|
||||
#SCROLL 1
|
||||
#BPMCHANGE 260
|
||||
#MEASURE 4/4
|
||||
10201110,
|
||||
10102011,
|
||||
10101020,
|
||||
11101010,
|
||||
10211110,
|
||||
21111110,
|
||||
21111010,
|
||||
222200300000,
|
||||
|
||||
#GOGOSTART
|
||||
300000200111,
|
||||
10010010,
|
||||
26,
|
||||
00084000,
|
||||
300000200111,
|
||||
10020020,
|
||||
26,
|
||||
000000000800200020002000,
|
||||
|
||||
10102011,
|
||||
20112011,
|
||||
26,
|
||||
00084011,
|
||||
20112011,
|
||||
20112011,
|
||||
20202011,
|
||||
1110101010101000,
|
||||
|
||||
7,
|
||||
0008,
|
||||
30030301,
|
||||
1011101010101030,
|
||||
,
|
||||
,
|
||||
,
|
||||
,
|
||||
#END
|
||||
|
||||
COURSE:Normal
|
||||
LEVEL:7
|
||||
BALLOON:6,44,10
|
||||
|
||||
#START
|
||||
#GOGOSTART
|
||||
33,
|
||||
33,
|
||||
3222,
|
||||
2303,
|
||||
#GOGOEND
|
||||
|
||||
30010010,
|
||||
0222,
|
||||
10010020,
|
||||
1110,
|
||||
30010010,
|
||||
0222,
|
||||
10101110,
|
||||
2220,
|
||||
|
||||
30010010,
|
||||
0222,
|
||||
10010020,
|
||||
1110,
|
||||
30010010,
|
||||
0222,
|
||||
10102220,
|
||||
1120,
|
||||
|
||||
10010010,
|
||||
10002220,
|
||||
10010010,
|
||||
10002220,
|
||||
10010010,
|
||||
10002220,
|
||||
10102220,
|
||||
11102020,
|
||||
|
||||
10010010,
|
||||
10002220,
|
||||
10010010,
|
||||
20001110,
|
||||
20201110,
|
||||
20201110,
|
||||
20020070,
|
||||
0008,
|
||||
|
||||
10101110,
|
||||
10101110,
|
||||
10111010,
|
||||
11101000,
|
||||
30030030,
|
||||
3404,
|
||||
10102220,
|
||||
11102020,
|
||||
|
||||
10101110,
|
||||
10101110,
|
||||
10111010,
|
||||
11101000,
|
||||
30030030,
|
||||
3404,
|
||||
11101110,
|
||||
4,
|
||||
|
||||
#GOGOSTART
|
||||
10110020,
|
||||
10110020,
|
||||
10110020,
|
||||
10111020,
|
||||
10110020,
|
||||
10110020,
|
||||
500000000000000000000000000000000008000000000000,
|
||||
6008,
|
||||
|
||||
10220020,
|
||||
10220020,
|
||||
10220020,
|
||||
10222020,
|
||||
10102020,
|
||||
1122,
|
||||
11102220,
|
||||
11102220,
|
||||
|
||||
10201110,
|
||||
10202220,
|
||||
11101110,
|
||||
22202220,
|
||||
500000000000000000000000000000000008000000000000,
|
||||
40030030,
|
||||
10101110,
|
||||
11111010,
|
||||
#GOGOEND
|
||||
|
||||
7,
|
||||
,
|
||||
,
|
||||
,
|
||||
,
|
||||
,
|
||||
,
|
||||
0008,
|
||||
|
||||
#MEASURE 5/4
|
||||
#GOGOSTART
|
||||
30
|
||||
#GOGOEND
|
||||
02002020,
|
||||
#GOGOSTART
|
||||
30
|
||||
#GOGOEND
|
||||
02002020,
|
||||
#GOGOSTART
|
||||
30
|
||||
#GOGOEND
|
||||
02002020,
|
||||
#GOGOSTART
|
||||
30
|
||||
#GOGOEND
|
||||
02002020,
|
||||
|
||||
#GOGOSTART
|
||||
30
|
||||
#GOGOEND
|
||||
02002220,
|
||||
#GOGOSTART
|
||||
30
|
||||
#GOGOEND
|
||||
02002220,
|
||||
#GOGOSTART
|
||||
30
|
||||
#GOGOEND
|
||||
02002220,
|
||||
#GOGOSTART
|
||||
30
|
||||
#GOGOEND
|
||||
20202011,
|
||||
|
||||
#MEASURE 4/4
|
||||
10110110,
|
||||
2222,
|
||||
10010010,
|
||||
00201111,
|
||||
10020020,
|
||||
10102222,
|
||||
20002011,
|
||||
10201111,
|
||||
|
||||
10110110,
|
||||
2222,
|
||||
30030040,
|
||||
0222,
|
||||
11101110,
|
||||
10101110,
|
||||
22201110,
|
||||
2220,
|
||||
|
||||
#MEASURE 5/4
|
||||
#BPMCHANGE 325
|
||||
#SCROLL 0.8
|
||||
1212,
|
||||
1212,
|
||||
1212,
|
||||
1212,
|
||||
1212,
|
||||
1212,
|
||||
1212,
|
||||
1130,
|
||||
|
||||
#MEASURE 4/4
|
||||
#BPMCHANGE 260
|
||||
#SCROLL 1
|
||||
10101110,
|
||||
10101011,
|
||||
10101010,
|
||||
11103000,
|
||||
10111110,
|
||||
11111110,
|
||||
11111010,
|
||||
222200300000,
|
||||
|
||||
#GOGOSTART
|
||||
32,
|
||||
10010010,
|
||||
26,
|
||||
0840,
|
||||
32,
|
||||
10020020,
|
||||
26,
|
||||
0840,
|
||||
|
||||
1121,
|
||||
2121,
|
||||
26,
|
||||
0840,
|
||||
1121,
|
||||
2121,
|
||||
20202011,
|
||||
11101110,
|
||||
|
||||
7,
|
||||
0008,
|
||||
30030301,
|
||||
11111113,
|
||||
,
|
||||
,
|
||||
,
|
||||
,
|
||||
#END
|
||||
|
||||
COURSE:Easy
|
||||
LEVEL:5
|
||||
BALLOON:5,32,8
|
||||
|
||||
|
||||
#START
|
||||
#GOGOSTART
|
||||
33,
|
||||
33,
|
||||
3,
|
||||
0400,
|
||||
#GOGOEND
|
||||
|
||||
10010010,
|
||||
02,
|
||||
10010010,
|
||||
,
|
||||
10010010,
|
||||
02,
|
||||
12,
|
||||
1110,
|
||||
|
||||
10010010,
|
||||
02,
|
||||
10010010,
|
||||
,
|
||||
10010010,
|
||||
02,
|
||||
12,
|
||||
1110,
|
||||
|
||||
10010010,
|
||||
1,
|
||||
10010010,
|
||||
1,
|
||||
10010010,
|
||||
1,
|
||||
22,
|
||||
2220,
|
||||
|
||||
10010010,
|
||||
1,
|
||||
10010010,
|
||||
1,
|
||||
5,
|
||||
000000000000000000000000000008000000000000000000,
|
||||
10010070,
|
||||
0008,
|
||||
|
||||
11,
|
||||
1110,
|
||||
11,
|
||||
1110,
|
||||
30030030,
|
||||
000000000000500000000000000000000000000008000000,
|
||||
5,
|
||||
000000000000000000000000000008000000000000000000,
|
||||
|
||||
11,
|
||||
1110,
|
||||
11,
|
||||
1110,
|
||||
30030030,
|
||||
3300,
|
||||
1110,
|
||||
4,
|
||||
|
||||
#GOGOSTART
|
||||
10010010,
|
||||
10010010,
|
||||
10010010,
|
||||
12,
|
||||
10010010,
|
||||
10010010,
|
||||
5,
|
||||
000000000000000000000000000008000000000000000000,
|
||||
|
||||
10010010,
|
||||
10010010,
|
||||
10010010,
|
||||
12,
|
||||
1110,
|
||||
1110,
|
||||
1111,
|
||||
1110,
|
||||
|
||||
2220,
|
||||
2220,
|
||||
2222,
|
||||
2220,
|
||||
500000000000000000000000000000000008000000000000,
|
||||
30030030,
|
||||
31,
|
||||
1111,
|
||||
#GOGOEND
|
||||
|
||||
7,
|
||||
,
|
||||
,
|
||||
,
|
||||
,
|
||||
,
|
||||
,
|
||||
0008,
|
||||
|
||||
#GOGOSTART
|
||||
#MEASURE 5/4
|
||||
3
|
||||
#GOGOEND
|
||||
0000,
|
||||
#GOGOSTART
|
||||
3
|
||||
#GOGOEND
|
||||
0000,
|
||||
#GOGOSTART
|
||||
3
|
||||
#GOGOEND
|
||||
0000,
|
||||
#GOGOSTART
|
||||
3
|
||||
#GOGOEND
|
||||
0000,
|
||||
|
||||
#GOGOSTART
|
||||
3
|
||||
#GOGOEND
|
||||
0020,
|
||||
#GOGOSTART
|
||||
3
|
||||
#GOGOEND
|
||||
0020,
|
||||
#GOGOSTART
|
||||
3
|
||||
#GOGOEND
|
||||
0020,
|
||||
#GOGOSTART
|
||||
3
|
||||
#GOGOEND
|
||||
0000,
|
||||
|
||||
#MEASURE 4/4
|
||||
10010010,
|
||||
02,
|
||||
10010010,
|
||||
02,
|
||||
10010010,
|
||||
02,
|
||||
10001010,
|
||||
12,
|
||||
|
||||
10010010,
|
||||
02,
|
||||
30030030,
|
||||
02,
|
||||
1110,
|
||||
1110,
|
||||
1111,
|
||||
1110,
|
||||
|
||||
#MEASURE 5/4
|
||||
#BPMCHANGE 325
|
||||
#SCROLL 0.8
|
||||
1110,
|
||||
2220,
|
||||
1110,
|
||||
2220,
|
||||
1110,
|
||||
2220,
|
||||
1110,
|
||||
3,
|
||||
|
||||
#MEASURE 4/4
|
||||
#BPMCHANGE 260
|
||||
#SCROLL 1
|
||||
1111,
|
||||
1110,
|
||||
1111,
|
||||
1110,
|
||||
10111000,
|
||||
11101000,
|
||||
11101010,
|
||||
1130,
|
||||
|
||||
#GOGOSTART
|
||||
3,
|
||||
20020020,
|
||||
26,
|
||||
0008,
|
||||
3,
|
||||
20020020,
|
||||
26,
|
||||
0008,
|
||||
|
||||
11,
|
||||
11,
|
||||
16,
|
||||
0008,
|
||||
1011,
|
||||
12,
|
||||
10101011,
|
||||
12,
|
||||
|
||||
7,
|
||||
0008,
|
||||
30030000,
|
||||
10103003,
|
||||
,
|
||||
,
|
||||
,
|
||||
,
|
||||
#END
|
||||
Reference in New Issue
Block a user