This commit is contained in:
2026-03-04 23:59:27 +09:00
parent 6e0312f5b4
commit 4b4e2b8c98
1128 changed files with 668765 additions and 0 deletions

408
tja/894.tja Normal file
View File

@@ -0,0 +1,408 @@
//TJADB Project
TITLE:Ima
TITLEJA:今
SUBTITLE:--HIKAKIN & SEIKIN
SUBTITLEJA:HIKAKIN & SEIKIN
BPM:128
WAVE:Ima.ogg
OFFSET:-1.998
DEMOSTART:61.734
COURSE:Oni
LEVEL:5
SCOREINIT:780
SCOREDIFF:233
#START
11,
2002002020000000,
11,
2002002020000000,
1001001020002000,
1001002020222000,
1001001020002000,
3004,
#GOGOSTART
1001001020002000,
1001001020000011,
1001001020002000,
1001002010000011,
1001001020002000,
1001001020000011,
1001001020002000,
3003003030002000,
#GOGOEND
1001001000202020,
1001001000000000,
1001001000202020,
1001001000000000,
1002001000202020,
1001002000000000,
1002001000202020,
1001002000000000,
20020020,
20020020,
20020020,
2000002000002011,
10101011,
10101011,
1010101011101110,
3014,
#GOGOSTART
1001002020002000,
1001002010222011,
1001002020002000,
1001002010222011,
1001001020002000,
1001002010222011,
1001002020002000,
1001002010222011,
1001001020002000,
1001002010112011,
1001002020002000,
1001002010112011,
1001001020002000,
1001002010112011,
1001002020002000,
600000000000000000000000000008000000000000000000,
#GOGOEND
2,
2,
2,
2,
12,
12,
12,
500000000000000000000000000000000000000000000008,
,
#GOGOSTART
,
0022,
2,
0022,
2,
0022,
2,
#GOGOEND
3004,
#GOGOSTART
1001001020002000,
1001002010222011,
1001002020002000,
1001002010222011,
1001001020002000,
1001002010222011,
1001002020002000,
3003003030004000,
#GOGOEND
#END
COURSE:Hard
LEVEL:3
SCOREINIT:780
SCOREDIFF:220
#START
11,
2002002020000000,
11,
2002002020000000,
11,
2002002020000000,
1011,
3004,//8
#GOGOSTART
1012,
1001001010000000,
1012,
1001001010000000,
1012,
1001001010000000,
1012,
3003003030000000,//16
#GOGOEND
10010010,
2002002000000000,
10010010,
2002002000000000,
10010010,
2002002000000000,
10010010,
2002002000000000,
2002,
2002,
2002,
20020020,
10101011,
10101011,
10101111,
3004,//32
#GOGOSTART
1001000010002000,
1001001010000000,
1001000010002000,
1001002020000000,
1001000020002000,
1001001010000000,
1001000020002000,
1001002020000000,
1001000020002000,
1001001010000000,
1001000020002000,
1001002020000000,
1001000020002000,
1001001010000000,
1001000020002000,
600000000000000000000000000008000000000000000000,//48
#GOGOEND
2,
2,
2,
2,
12,
12,
12,
500000000000000000000000000000000000000000000008,
,//57
#GOGOSTART
,
0022,
2,
0022,
2,
0022,
2,//64
#GOGOEND
3004,//65
#GOGOSTART
1001000020002000,
1001001010000000,
1001000020002000,
1001002020000000,
1001000020002000,
1001001010000000,
1001000020002000,
3003003030004000,//73
#GOGOEND
,
,
#END
COURSE:Normal
LEVEL:3
#START
1,
1,
11,
1,
1,
1,
1011,
3004,//8
#GOGOSTART
11,
10011000,
11,
10011000,
11,
10011000,
11,
600000000000000000000000000008000000000000000000,//16
#GOGOEND
1,
11,
1,
11,
1,
11,
1,
11,
2,
2,
2,
2,
11,
11,
1111,
3,//32
#GOGOSTART
11,
10011000,
11,
10022000,
11,
10011000,
11,
10022000,
12,
10011000,
12,
10022000,
12,
10011000,
12,
600000000000000000000000000008000000000000000000,//48
#GOGOEND
2,
2,
2,
,
2,
2,
22,
500000000000000000000000000000000000000000000008,
,//57
#GOGOSTART
,
0022,
2,
0022,
2,
0022,
2,//64
#GOGOEND
3004,//65
#GOGOSTART
11,
10011000,
11,
10022000,
11,
10011000,
11,
600000000000000000000000000008000000000000000000,//73
#GOGOEND
,
,
#END
COURSE:Easy
LEVEL:2
#START
1,
,
1,
,
1,
1,
11,
3,//8
#GOGOSTART
11,
1,
11,
1,
11,
1,
11,
600000000000000000000000000008000000000000000000,//16
#GOGOEND
1,
1,
1,
,
1,
1,
1,
,
2,
,
2,
,
1,
1,
11,
3,//32
#GOGOSTART
11,
1,
11,
1,
11,
1,
11,
1,
11,
2,
11,
2,
11,
2,
11,
600000000000000000000000000008000000000000000000,//48
#GOGOEND
2,
,
2,
,
2,
2,
2,
500000000000000000000000000000000000000000000008,
,//57
#GOGOSTART
,
0022,
2,
0022,
2,
0022,
2,//64
#GOGOEND
3,//65
#GOGOSTART
11,
1,
11,
1,
11,
1,
11,
600000000000000000000000000008000000000000000000,//73
#GOGOEND
,
,
#END